Скачать Нетерпение чувств / Bad Timing (1980) BDRip 720p by msltel | P2, A бесплатно без регистрации






Аудио 3: английский, AC3, 192 kbps, 2 ch, 48 kHz [оригинал]

Имеются неименованные главы/чаптеры.

Кванты и MediaInfoframe I:1321 Avg QP:19.92 size: 87480
frame P:31622 Avg QP:21.11 size: 51697
frame B:142786 Avg QP:22.95 size: 21410

Общее
Уникальный идентификатор : 222174996565212215767485115630232486752 (0xA725590E86CB0F70B3B9FECB47FB4360)
Полное имя : D:VideoNeterpenie chuvstv.1980.BDRip.720p.mkv
Формат : Matroska
Версия формата : Version 4 / Version 2
Размер файла : 5,30 Гбайт
Продолжительность : 2 ч. 2 м.
Общий поток : 6210 Кбит/сек
Дата кодирования : UTC 2015-03-17 14:06:02
Программа кодирования : mkvmerge v7.7.0 ('Six Voices') 64bit built on Feb 28 2015 23:39:33
Библиотека кодирования : libebml v1.3.1 + libmatroska v1.4.2
_STATISTICS_WRITING_APP : mkvmerge v7.7.0 ('Six Voices') 64bit built on Feb 28 2015 23:39:33
_STATISTICS_WRITING_DATE_UTC : 2015-03-17 14:06:02
_STATISTICS_TAGS : BPS DURATION NUMBER_OF_FRAMES NUMBER_OF_BYTES
DURATION : 02:01:12.473000000
NUMBER_OF_FRAMES : 1336
NUMBER_OF_BYTES : 51957

Видео
Идентификатор : 1
Формат : AVC
Формат/Информация : Advanced Video Codec
Профиль формата : High@L4.1
Параметр CABAC формата : Да
Параметр ReFrames формата : 9 кадров
Идентификатор кодека : V_MPEG4/ISO/AVC
Продолжительность : 2 ч. 2 м.
Битрейт : 5126 Кбит/сек
Ширина : 1280 пикселей
Высота : 548 пикселей
Соотношение сторон : 2,35:1
Режим частоты кадров : Постоянный
Частота кадров : 23,976 кадра/сек
Цветовое пространство : YUV
Субдискретизация насыщенности : 4:2:0
Битовая глубина : 8 бит
Тип развёртки : Прогрессивная
Бит/(Пиксели*Кадры) : 0.305
Размер потока : 4,37 Гбайт (83%)
Заголовок : BDRip -- STarankov
Библиотека кодирования : x264 core 142 r2431 ac76440
Настройки программы : cabac=1 / ref=9 / deblock=1:-2:-2 / analyse=0x3:0x113 / me=umh / subme=10 / psy=1 / psy_rd=1.00:0.15 / mixed_ref=1 / me_range=32 / chroma_me=1 / trellis=2 / 8x8dct=1 / cqm=0 / deadzone=21,11 / fast_pskip=1 / chroma_qp_offset=-3 / threads=6 / lookahead_threads=1 / sliced_threads=0 / nr=0 / decimate=1 / interlaced=0 / bluray_compat=0 / constrained_intra=0 / bframes=8 / b_pyramid=2 / b_adapt=2 / b_bias=0 / direct=3 / weightb=1 / open_gop=0 / weightp=2 / keyint=230 / keyint_min=23 / scenecut=40 / intra_refresh=0 / rc_lookahead=40 / rc=crf / mbtree=0 / crf=20.0 / qcomp=0.60 / qpmin=0 / qpmax=69 / qpstep=4 / vbv_maxrate=40000 / vbv_bufsize=50000 / crf_max=0.0 / nal_hrd=none / filler=0 / ip_ratio=1.40 / pb_ratio=1.30 / aq=1:1.00
Язык : English
Default : Да
Forced : Нет
DURATION : 02:02:09.364000000
NUMBER_OF_FRAMES : 175729
NUMBER_OF_BYTES : 4807329939
_STATISTICS_WRITING_APP : mkvmerge v7.7.0 ('Six Voices') 64bit built on Feb 28 2015 23:39:33
_STATISTICS_WRITING_DATE_UTC : 2015-03-17 14:06:02
_STATISTICS_TAGS : BPS DURATION NUMBER_OF_FRAMES NUMBER_OF_BYTES

Аудио #1
Идентификатор : 2
Формат : AC-3
Формат/Информация : Audio Coding 3
Расширение режима : CM (complete main)
Параметр Endianness формата : Big
Идентификатор кодека : A_AC3
Продолжительность : 2 ч. 2 м.
Вид битрейта : Постоянный
Битрейт : 384 Кбит/сек
Каналы : 2 канала
Расположение каналов : Front: L R
Частота : 48,0 КГц
Битовая глубина : 16 бит
Метод сжатия : С потерями
Размер потока : 336 Мбайт (6%)
Заголовок : DVO
Язык : Russian
Default : Да
Forced : Нет

Аудио #2
Идентификатор : 3
Формат : AC-3
Формат/Информация : Audio Coding 3
Расширение режима : CM (complete main)
Параметр Endianness формата : Big
Идентификатор кодека : A_AC3
Продолжительность : 2 ч. 2 м.
Вид битрейта : Постоянный
Битрейт : 384 Кбит/сек
Каналы : 2 канала
Расположение каналов : Front: L R
Частота : 48,0 КГц
Битовая глубина : 16 бит
Метод сжатия : С потерями
Размер потока : 336 Мбайт (6%)
Заголовок : AVO (Андрей Гаврилов)
Язык : Russian
Default : Нет
Forced : Нет

Аудио #3
Идентификатор : 4
Формат : AC-3
Формат/Информация : Audio Coding 3
Расширение режима : CM (complete main)
Параметр Endianness формата : Big
Идентификатор кодека : A_AC3
Продолжительность : 2 ч. 2 м.
Вид битрейта : Постоянный
Битрейт : 192 Кбит/сек
Каналы : 2 канала
Расположение каналов : Front: L R
Частота : 48,0 КГц
Битовая глубина : 16 бит
Метод сжатия : С потерями
Размер потока : 168 Мбайт (3%)
Заголовок : Original
Язык : English
Default : Нет
Forced : Нет

Текст
Идентификатор : 5
Формат : UTF-8
Идентификатор кодека : S_TEXT/UTF8
Идентификатор кодека/Информация : UTF-8 Plain Text
Заголовок : английские (для слабослышащих)
Язык : English
Default : Нет
Forced : Нет

Меню
00:00:00.000 : :Chapter 01
00:06:18.376 : :Chapter 02
00:15:51.951 : :Chapter 03
00:28:29.708 : :Chapter 04
00:34:40.077 : :Chapter 05
00:43:54.632 : :Chapter 06
00:54:57.293 : :Chapter 07
01:09:40.176 : :Chapter 08
01:23:18.827 : :Chapter 09
01:39:45.979 : :Chapter 10
01:46:57.411 : :Chapter 11
01:55:12.363 : :Chapter 12
02:02:00.313 : :Chapter 13
Скриншоты
ЗалилОписание: Американку Милену Флаэрти привозят в городскую клинику с подозрением на попытку самоубийства. Инспектору Нетусилу поручено расследовать это дело. Он допрашивает любовника Милены, профессора психологии Алекса Линдена. Алекс вспоминает историю своих взаимоотношений с Миленой. Где и при каких обстоятельствах безумная страсть могла перерасти в не менее безудержную ненависть?...



Качество: BDRip 720pПеревод: профессиональный двухголосый, авторский
Аудио 1: русский, AC3, 384 kbps, 2 ch, 48 kHz [профессиональный двухголосый]
Формат: MKV
В ролях: Арт Гарфанкел, Тереза Расселл, Харви Кейтель, Денхолм Эллиотт, Дэниэл Мэсси, Дэна Гиллеспи, Уильям Хуткинс, Юджин Липински, Джордж Рубисек, Стефан Грифф

Аудио 2: русский, AC3, 384 kbps, 2 ch, 48 kHz [авторский, Андрей Гаврилов]
Жанр: триллер, драма, детектив
Страна: Великобритания
Субтитры: английские (для слабослышащих)

Видео кодек: H.264
Видео: 5126 Кбит/с, 1280x548, 23.976 кадра/с, 0.305 bpp
Аудио кодек: AC3
Режиссёр: Николас Роуг

msltel Оценка10 из 10 (1 голосов, самая низкая оценка - 10, самая высокая - 10) КатегорияЗарубежные фильмы Раздают1 Качают0 Сидер замечен09-07-2019 18:19:12 (5 дней назад) Добавлен18-03-2015 16:15:12 (53 месяца назад) Размер5.30 GB (5689117702 Bytes)Сравнение с исходником
Год выпуска: 1980
Продолжительность: 02:02:09

Если у вас возникли проблемы с закачкой Нетерпение чувств / Bad Timing (1980) BDRip 720p by msltel | P2, A, перейдите по ссылке - там вы найдете решение своей проблемы.

Категория: Зарубежные фильмы

 

Скачать Нетерпение чувств / Bad Timing (1980) BDRip 720p by msltel | P2, A бесплатно без регистрации

 

Информация
Посетители, находящиеся в группе Гости, не могут оставлять комментарии к данной публикации.
 
 
Скачать Нетерпение чувств / Bad Timing (1980) BDRip 720p by msltel | P2, A бесплатно без регистрацииCopyright © 2019 .