Скачать Взлом / Takedown (2000) WEB-DL 720р | Р бесплатно без регистрации






Формат: МКV
Авторы сценария: Дэвид Ньюман, Лесли Ньюман, Джон Данза

Производство: Dimension Films, Millennium Films
RUS / звук с VHSRip
Аудио №2: 48.0 kHz, AC3 Dolby Digital, 3/2 (L,C,R,l,r) + LFE ch, ~384 kbps |Перевод: Профессиональный (многоголосый, закадровый) |Описание: Гениальный хакер Митник уже два года скрывается от лучших оперативников ФБР, без труда проникая в самые защищённые базы данных. Но теперь он обрёл более опасного и хитрого врага, спеца по электронной безопасности Шимомуру, у которого ему удалось похитить уникальный вирус, способный уничтожить любой компьютер.

Митник по-прежнему неуловим для правительственных агентов, но сумеет ли он уйти от опытного Шимомуры, который объявил ему настоящую войну..?



Видео кодек: AVC
В ролях: Скит Ульрих, Расселл Вонг, Анджела Фезерстоун, Донал Лог, Кристофер МакДональд, Мастер Пи, Том Беренджер, Джереми Систо

Аудио №1: 48.0 kHz, AC3 Dolby Digital, 2/0 (L,R) ch, ~192 kbps |Продолжительность: 01:35:58

Takedown

Zha-4k-e ОценкаНикто ещё не поставил оценку КатегорияЗарубежные фильмы Раздают1 Качают0 Сидер замечен14-07-2019 21:19:15 (4 минуты назад) Добавлен03-04-2018 13:59:28 (16 месяцев назад) Размер3.11 GB (3340568552 Bytes)ENG

Взлом /Жанр: триллер, драма, криминал, биография
General
Unique ID : 150126676005515751775498785025559273890 (0x70F1589881287105EF30EFC6CDDAA1A2)
Complete name : Взлом-2000 (WEB-DL 720p).mkv
Format : Matroska
Format version : Version 4 / Version 2
File size : 3.11 GiB
Duration : 1 h 35 min
Overall bit rate : 4 641 kb/s
Encoded date : UTC 2017-12-23 07:56:49
Writing application : mkvmerge v19.0.0 ('Brave Captain') 64-bit
Writing library : libebml v1.3.5 + libmatroska v1.4.8

Video
ID : 1
Format : AVC
Format/Info : Advanced Video Codec
Format profile : High@L3.1
Format settings : 2 Ref Frames
Format settings, CABAC : No
Format settings, RefFrames : 2 frames
Codec ID : V_MPEG4/ISO/AVC
Duration : 1 h 35 min
Bit rate : 4 063 kb/s
Width : 1 280 pixels
Height : 718 pixels
Display aspect ratio : 16:9
Frame rate mode : Constant
Frame rate : 23.976 (23976/1000) FPS
Color space : YUV
Chroma subsampling : 4:2:0
Bit depth : 8 bits
Scan type : Progressive
Bits/(Pixel*Frame) : 0.184
Stream size : 2.72 GiB (88%)
Language : English
Default : Yes
Forced : No
Color range : Limited
Color primaries : BT.709
Transfer characteristics : BT.709
Matrix coefficients : BT.709

Audio #1
ID : 2
Format : AC-3
Format/Info : Audio Coding 3
Format settings, Endianness : Big
Codec ID : A_AC3
Duration : 1 h 35 min
Bit rate mode : Constant
Bit rate : 192 kb/s
Channel(s) : 2 channels
Channel positions : Front: L R
Sampling rate : 48.0 kHz
Frame rate : 31.250 FPS (1536 SPF)
Bit depth : 16 bits
Compression mode : Lossy
Stream size : 132 MiB (4%)
Title : Профессиональный (многоголосый закадровый) - Первый канал
Language : Russian
Service kind : Complete Main
Default : No
Forced : Yes

Audio #2
ID : 3
Format : AC-3
Format/Info : Audio Coding 3
Format settings, Endianness : Big
Codec ID : A_AC3
Duration : 1 h 35 min
Bit rate mode : Constant
Bit rate : 384 kb/s
Channel(s) : 6 channels
Channel positions : Front: L C R, Side: L R, LFE
Sampling rate : 48.0 kHz
Frame rate : 31.250 FPS (1536 SPF)
Bit depth : 16 bits
Compression mode : Lossy
Stream size : 264 MiB (8%)
Language : English
Service kind : Complete Main
Default : No
Forced : No

Menu
00:00:00.000 : en:Chapter 1
00:07:19.000 : en:Chapter 2
00:17:19.000 : en:Chapter 3
00:27:23.000 : en:Chapter 4
00:38:36.000 : en:Chapter 5
00:47:45.000 : en:Chapter 6
00:57:33.000 : en:Chapter 7
01:08:15.000 : en:Chapter 8
01:18:09.000 : en:Chapter 9
01:27:03.000 : en:Chapter 10
01:31:48.000 : en:Chapter 11Скриншоты ЗалилАудио кодек: АС3
Дата премьеры (мир): 2 февраля 2000



Media InfoСубтитры: нет

Год выпуска: 2000
Видео: 1280x718 (16:9), 23.976 fps, MPEG-4 AVC ~4 063 kbps avg
Качество: WEB-DL 720р
Первый канал
Страна: США
Режиссер: Джо Чаппелль

Если у вас возникли проблемы с закачкой Взлом / Takedown (2000) WEB-DL 720р | Р, перейдите по ссылке - там вы найдете решение своей проблемы.

Категория: Зарубежные фильмы

 

Скачать Взлом / Takedown (2000) WEB-DL 720р | Р бесплатно без регистрации

 

Информация
Посетители, находящиеся в группе Гости, не могут оставлять комментарии к данной публикации.
 
 
Скачать Взлом / Takedown (2000) WEB-DL 720р | Р бесплатно без регистрацииCopyright © 2019 .