Скачать Сердца четырёх (1941) DVDRip-AVC Hi10P бесплатно без регистрации






Информация о фильме
Название: Сердца четырёх
Качество: DVDRip
Перевод: оригинал, субтитры отсутствуют.

dio669 Оценка7.5 из 10 (2 голосов, самая низкая оценка - 5, самая высокая - 10) КатегорияНаши фильмы Раздают5 Качают0 Сидер замечен14-07-2019 15:19:12 (56 минут назад) Добавлен18-03-2016 20:48:23 (40 месяцев назад) Размер3.40 GB (3652992297 Bytes)Кодек: x264 10bit
Звук:
1. mp3 320 Kbps mono оригинальная
2. mp3 320 Kbps stereo переозвученная

Жанр: Мелодрама, лирическая комедия
Доп. информация: Внимание! Используется 10-битный кодек, на стационарных плеерах проигрываться не будет. Для просмотра на компьютере можно использовать например MPC-HC или VLC плееры.
Что было сделано. Немного поправил уровни, резкость, применил дебандинг, чёрно-белую шкалу GreyScale, убрал интерлейс, почистил шум, привёл к оригинальной скорости плёнки 24к/с, соотвественно тональность звука стала как должна быть в оригинале, закодировал 10-битным кодеком, так как с ним лучше сохраняются детали на тёмных кадрах. ЗалилГод выхода: 1941
Студия: Мосфильм
Сравнение с оригиналом: http://screenshotcomparison.com/comparison/165788
Альтернативное сравнение
Соответственно до и после.
Скриншоты MediaInfo
General
Unique ID : 251294858306135630930198384256934820233 (0xBD0DA116698790D499CA6A69E9A93989)
Complete name : E:TorrentFour Hearts.mkv
Format : Matroska
Format version : Version 4 / Version 2
File size : 3.40 GiB
Duration : 1h 33mn
Overall bit rate : 5 215 Kbps
Encoded date : UTC 2016-03-17 14:52:19
Writing application : mkvmerge v7.8.0 ('River Man') 64bit built on Mar 27 2015 16:31:37
Writing library : libebml v1.3.1 + libmatroska v1.4.2
DURATION : 01:33:05.136000000
NUMBER_OF_FRAMES : 232714
NUMBER_OF_BYTES : 223405440
_STATISTICS_WRITING_APP : mkvmerge v7.8.0 ('River Man') 64bit built on Mar 27 2015 16:31:37
_STATISTICS_WRITING_DATE_UTC : 2016-03-17 14:52:19
_STATISTICS_TAGS : BPS DURATION NUMBER_OF_FRAMES NUMBER_OF_BYTES

Video
ID : 1
Format : AVC
Format/Info : Advanced Video Codec
Format profile : High 10@L4
Format settings, CABAC : Yes
Format settings, ReFrames : 16 frames
Codec ID : V_MPEG4/ISO/AVC
Duration : 1h 33mn
Bit rate : 4 471 Kbps
Width : 740 pixels
Height : 564 pixels
Display aspect ratio : 4:3
Frame rate mode : Constant
Frame rate : 24.000 fps
Color space : YUV
Chroma subsampling : 4:2:0
Bit depth : 10 bits
Scan type : Progressive
Bits/(Pixel*Frame) : 0.446
Stream size : 2.92 GiB (86%)
Writing library : x264 core 146 r2538kMod 121396c
Encoding settings : cabac=1 / ref=16 / deblock=1:0:0 / analyse=0x3:0x133 / me=umh / subme=11 / psy=1 / fade_compensate=0.00 / psy_rd=1.00:0.10 / mixed_ref=1 / me_range=64 / chroma_me=1 / trellis=2 / 8x8dct=1 / cqm=0 / deadzone=21,11 / fast_pskip=0 / chroma_qp_offset=-3 / threads=6 / lookahead_threads=1 / sliced_threads=0 / nr=0 / decimate=1 / interlaced=0 / bluray_compat=0 / constrained_intra=0 / fgo=0 / bframes=16 / b_pyramid=2 / b_adapt=2 / b_bias=0 / direct=3 / weightb=1 / open_gop=0 / weightp=2 / keyint=240 / keyint_min=24 / scenecut=40 / intra_refresh=0 / rc=crf / mbtree=0 / crf=15.0000 / qcomp=0.60 / qpmin=0 / qpmax=81 / qpstep=4 / ip_ratio=1.40 / pb_ratio=1.30 / aq=3:0.70
Default : Yes
Forced : No

Audio #1
ID : 2
Format : MPEG Audio
Format version : Version 1
Format profile : Layer 3
Codec ID : A_MPEG/L3
Codec ID/Hint : MP3
Duration : 1h 33mn
Bit rate mode : Constant
Bit rate : 320 Kbps
Channel(s) : 1 channel
Sampling rate : 48.0 KHz
Compression mode : Lossy
Stream size : 214 MiB (6%)
Title : mono оригинальная
Writing library : LAME3.99r
Encoding settings : -m m -V 4 -q 0 -lowpass 20.5
Language : Russian
Default : Yes
Forced : No

Audio #2
ID : 3
Format : MPEG Audio
Format version : Version 1
Format profile : Layer 3
Mode : Joint stereo
Codec ID : A_MPEG/L3
Codec ID/Hint : MP3
Duration : 1h 33mn
Bit rate mode : Constant
Bit rate : 320 Kbps
Channel(s) : 2 channels
Sampling rate : 48.0 KHz
Compression mode : Lossy
Stream size : 213 MiB (6%)
Title : stereo переозвученная
Writing library : LAME3.99r
Encoding settings : -m j -V 4 -q 0 -lowpass 20.5
Language : Russian
Default : No
Forced : No

Режиссер: Константин Юдин
В ролях: Валентина Серова, Евгений Самойлов, Людмила Целиковская, Павел Шпрингфельд, Ирина Мурзаева, Лиза Дмитриевская, Андрей Тутышкин, Александр Антонов, Татьяна Барышева, Всеволод Санаев, Эммануил Геллер, Ростислав Плятт, Николай Трофимов, Татьяна Говоркова и другие

О фильме:
В подмосковном дачном поселке расквартирован полк танкистов. Сюжет строится вокруг двух сестер, абсолютно разных, но одинаково влюбленных. Одна — серьезный математик, другая — легкомысленная стрекоза. В центре внимания девушек бравый военный. Жизенные перипетии, смешные и сложные ситуации, интриги, слезы, радость, но все строится вокруг одного — любви




Видео: 740x564, 4471 Kbps, 24fps
О релизе:
Это полная версия фильма с оригинальным звуком. За исходник был взят DVD подготовленный уважаемым AVV_UA. Просто скопирую его описание:
подробное описание полной версии DVD
В 1988 г. фильм был восстановлен. В данном случае это слово можно употреблять без кавычек, поскольку в картине действительно были восстановлены вырезанные ранее фрагменты со скульптурой Сталина (коротенький план почти без слов) и его же портретом на стене (а вот здесь выпали два фрагмента немаловажной сцены). Судя по всему, эти фрагменты сохранились без звукового сопровождения, поэтому при восстановлении они были переозвучены, причём Е. Самойлов и В. Санаев сделали это сами (хотя их голоса уже значительно отличались от тех, какими они были в молодости), реплики других актёров озвучили неизвестные люди. К сожалению, непонятно из каких соображений был переозвучен ещё целый ряд реплик и сцен, а также полностью переписана вся инструментальная музыка, изменены фоновые шумы и добавлены шумы и музыка в местах, где их изначально не было. Новая фонограмма — стереофоническая, вошедшие в неё фрагменты старой также стереофонизованы. Полная версия существует только в восстановленном варианте.
Лучшая среди многих DVD-изданий картинка — на дисках «Союз Видео» и «Видеобазы» (трансфер на них совершенно идентичен). К собственному диску «Видеобазы» я синхронизировал и добавил оригинальную звуковую дорожку с диска «Ретро-клуба» (спасибо MAG_istr!), содержащего изрезанную хрущёвской цензурой копию, к тому же с бесчисленными склейками в местах порывов плёнки — утраты измеряются подчас десятками секунд. Их пришлось восполнять с восстановленной фонограммы, так что местами среди оригинальных звучат «посторонние» голоса. Интересно, что оригинальная фонограмма длиннее восстановленной почти на 18 секунд — окончание музыки, звучащей уже после титра «Конец» (пришлось добавлять чёрные кадры в конец видео). Стереофоническая частично переозвученная дорожка также оставлена на диске — она идёт второй. Меню не редактировалось, переключение звука с пульта.
При восстановлении фильма титры были перерисованы, и хотя новые очень похожи на старые, но всё-таки другие. Я заменил начальные и конечный титры на оригинальные, взятые также с диска «Ретро-клуба», благо яркость и контрастность чёрно-белого фильма идеально совпадают в обеих версиях.

Продолжительность: 1:33:24
Страна: СССР

Если у вас возникли проблемы с закачкой Сердца четырёх (1941) DVDRip-AVC Hi10P, перейдите по ссылке - там вы найдете решение своей проблемы.

Категория: Наши фильмы

 

Скачать Сердца четырёх (1941) DVDRip-AVC Hi10P бесплатно без регистрации

 

Информация
Посетители, находящиеся в группе Гости, не могут оставлять комментарии к данной публикации.
 
 
Скачать Сердца четырёх (1941) DVDRip-AVC Hi10P бесплатно без регистрацииCopyright © 2019 .