Скачать Marillion ‎– Clutching At Straws (1987) FLAC от New-Team бесплатно без регистрации






Год издания диска: 1987
attami ОценкаНикто ещё не поставил оценку КатегорияМузыка Раздают0 Качают1 Сидер замечен03-02-2019 11:19:07 (5 месяцев назад) Добавлен25-12-2013 9:51:34 (68 месяцев назад) Размер350.70 MB (367733849 Bytes)Жанр: Symphonic Rock
Тип рипа: tracks+.cue
Дата выхода оригинального издания: 1987
Наличие сканов в содержимом раздачи: Да


Номер по каталогу: 0777 7 46866 2 4, CD-EMD 1002

Тип издания: CD , Album
Страна-производитель диска: Italy
Издатель (лейбл): EMI
Раздача от ЗалилАудиокодек: FLAC (*.flac)
Треклист:
01. Hotel Hobbies - 3:35
02. Warm Wet Circles - 4:25
03. That Time Of The Night (The Short Straw) - 6:00
04. Going Under - 2:47
05. Just For The Record - 3:09
06. White Russian - 6:27
07. Incommunicado - 5:16
08. Torch Song - 4:04
09. Slàinte Mhath - 4:45
10. Sugar Mice - 5:46
11. The Last Straw/Happy Ending - 5:58

Лог создания рипа
Exact Audio Copy V1.0 beta 3 from 29. August 2011

EAC extraction logfile from 25. December 2013, 0:41

Marillion / Clutching At Straws

Used drive : Optiarc DVD RW AD-7710H Adapter: 0 ID: 1

Read mode : Secure
Utilize accurate stream : Yes
Defeat audio cache : Yes
Make use of C2 pointers : No

Read offset correction : 48
Overread into Lead-In and Lead-Out : No
Fill up missing offset samples with silence : Yes
Delete leading and trailing silent blocks : No
Null samples used in CRC calculations : Yes
Used interface : Native Win32 interface for Win NT & 2000
Gap handling : Appended to previous track

Used output format : User Defined Encoder
Selected bitrate : 128 kBit/s
Quality : High
Add ID3 tag : No
Command line compressor : D:programsExact Audio Copy v .1.0 beta 3Exact Audio CopyFlacflac.exe
Additional command line options : -V -8 -T "Genre=%genre%" -T "Artist=%artist%" -T "Title=%title%" -T "Album=%albumtitle%" -T "Date=%year%" -T "Tracknumber=%tracknr%" -T "Comment=ripped by attami" %source%

TOC of the extracted CD

Track | Start | Length | Start sector | End sector
---------------------------------------------------------
1 | 0:00.33 | 3:35.60 | 33 | 16217
2 | 3:36.18 | 4:25.20 | 16218 | 36112
3 | 8:01.38 | 6:00.42 | 36113 | 63154
4 | 14:02.05 | 2:47.58 | 63155 | 75737
5 | 16:49.63 | 3:09.52 | 75738 | 89964
6 | 19:59.40 | 6:27.35 | 89965 | 119024
7 | 26:27.00 | 5:16.60 | 119025 | 142784
8 | 31:43.60 | 4:04.70 | 142785 | 161154
9 | 35:48.55 | 4:45.18 | 161155 | 182547
10 | 40:33.73 | 5:46.55 | 182548 | 208552
11 | 46:20.53 | 5:58.22 | 208553 | 235424

Track 1

Filename D:track+.cue_attamiMarillion - Clutching At Straws (1987)�1. Hotel Hobbies.wav

Pre-gap length 0:00:02.33

Peak level 92.3 %
Extraction speed 2.2 X
Track quality 99.9 %
Test CRC 5B7162CC
Copy CRC 5B7162CC
Accurately ripped (confidence 23) [026E98AA] (AR v2)
Copy OK

Track 2

Filename D:track+.cue_attamiMarillion - Clutching At Straws (1987)�2. Warm Wet Circles.wav

Pre-gap length 0:00:00.03

Peak level 99.9 %
Extraction speed 2.6 X
Track quality 99.9 %
Test CRC B64F542B
Copy CRC B64F542B
Accurately ripped (confidence 24) [F76E31CF] (AR v2)
Copy OK

Track 3

Filename D:track+.cue_attamiMarillion - Clutching At Straws (1987)�3. That Time Of The Night (The Short Straw).wav

Pre-gap length 0:00:00.03

Peak level 99.9 %
Extraction speed 3.2 X
Track quality 99.9 %
Test CRC 10CBB7C7
Copy CRC 10CBB7C7
Accurately ripped (confidence 22) [ABD39B5E] (AR v2)
Copy OK

Track 4

Filename D:track+.cue_attamiMarillion - Clutching At Straws (1987)�4. Going Under.wav

Pre-gap length 0:00:03.12

Peak level 57.9 %
Extraction speed 3.5 X
Track quality 100.0 %
Test CRC 24AB70E0
Copy CRC 24AB70E0
Accurately ripped (confidence 23) [8C43BB45] (AR v2)
Copy OK

Track 5

Filename D:track+.cue_attamiMarillion - Clutching At Straws (1987)�5. Just For The Record.wav

Pre-gap length 0:00:01.25

Peak level 99.9 %
Extraction speed 3.8 X
Track quality 100.0 %
Test CRC 742EB17D
Copy CRC 742EB17D
Accurately ripped (confidence 24) [93B7CE1A] (AR v2)
Copy OK

Track 6

Filename D:track+.cue_attamiMarillion - Clutching At Straws (1987)�6. White Russian.wav

Pre-gap length 0:00:00.02

Peak level 99.9 %
Extraction speed 4.4 X
Track quality 100.0 %
Test CRC 4F1B1F37
Copy CRC 4F1B1F37
Accurately ripped (confidence 23) [92623793] (AR v2)
Copy OK

Track 7

Filename D:track+.cue_attamiMarillion - Clutching At Straws (1987)�7. Incommunicado.wav

Pre-gap length 0:00:00.62

Peak level 97.0 %
Extraction speed 4.6 X
Track quality 100.0 %
Test CRC 670E73F7
Copy CRC 670E73F7
Accurately ripped (confidence 23) [ED367DB3] (AR v2)
Copy OK

Track 8

Filename D:track+.cue_attamiMarillion - Clutching At Straws (1987)�8. Torch Song.wav

Pre-gap length 0:00:00.45

Peak level 99.9 %
Extraction speed 4.7 X
Track quality 100.0 %
Test CRC 0EFEEC91
Copy CRC 0EFEEC91
Accurately ripped (confidence 23) [4751B7E7] (AR v2)
Copy OK

Track 9

Filename D:track+.cue_attamiMarillion - Clutching At Straws (1987)�9. Slainte Mhath.wav

Pre-gap length 0:00:00.02

Peak level 99.9 %
Extraction speed 5.0 X
Track quality 100.0 %
Test CRC 3C8E5B86
Copy CRC 3C8E5B86
Accurately ripped (confidence 24) [9CD9E788] (AR v2)
Copy OK

Track 10

Filename D:track+.cue_attamiMarillion - Clutching At Straws (1987)10. Sugar Mice.wav

Pre-gap length 0:00:02.35

Peak level 95.4 %
Extraction speed 5.3 X
Track quality 100.0 %
Test CRC 3404CB9F
Copy CRC 3404CB9F
Accurately ripped (confidence 23) [0A90E9E7] (AR v2)
Copy OK

Track 11

Filename D:track+.cue_attamiMarillion - Clutching At Straws (1987)11. The Last Straw- Happy Ending.wav

Pre-gap length 0:00:01.03

Peak level 99.9 %
Extraction speed 5.6 X
Track quality 100.0 %
Test CRC 78017E28
Copy CRC 78017E28
Accurately ripped (confidence 24) [6E4E3A03] (AR v2)
Copy OK

All tracks accurately ripped

No errors occurred

End of status report

==== Log checksum EC5E3FB99163D20416561D254B0BF8DBFBBEA571FF43C4554B879E11892246DF ====


Содержание индексной карты (.CUE)
REM GENRE "Symphonic Rock"
REM DATE 1987
REM DISCID 820C430B
REM COMMENT "ExactAudioCopy v1.0b3"
PERFORMER "Marillion"
TITLE "Clutching At Straws"
FILE "01. Hotel Hobbies.wav" WAVE
TRACK 01 AUDIO
TITLE "Hotel Hobbies"
PERFORMER "Marillion"
PREGAP 00:00:33
INDEX 01 00:00:00
TRACK 02 AUDIO
TITLE "Warm Wet Circles"
PERFORMER "Marillion"
INDEX 00 03:35:57
FILE "02. Warm Wet Circles.wav" WAVE
INDEX 01 00:00:00
TRACK 03 AUDIO
TITLE "That Time Of The Night (The Short Straw)"
PERFORMER "Marillion"
INDEX 00 04:25:17
FILE "03. That Time Of The Night (The Short Straw).wav" WAVE
INDEX 01 00:00:00
TRACK 04 AUDIO
TITLE "Going Under"
PERFORMER "Marillion"
INDEX 00 05:57:30
FILE "04. Going Under.wav" WAVE
INDEX 01 00:00:00
TRACK 05 AUDIO
TITLE "Just For The Record"
PERFORMER "Marillion"
INDEX 00 02:46:33
FILE "05. Just For The Record.wav" WAVE
INDEX 01 00:00:00
TRACK 06 AUDIO
TITLE "White Russian"
PERFORMER "Marillion"
INDEX 00 03:09:50
FILE "06. White Russian.wav" WAVE
INDEX 01 00:00:00
TRACK 07 AUDIO
TITLE "Incommunicado"
PERFORMER "Marillion"
INDEX 00 06:26:48
FILE "07. Incommunicado.wav" WAVE
INDEX 01 00:00:00
TRACK 08 AUDIO
TITLE "Torch Song"
PERFORMER "Marillion"
INDEX 00 05:16:15
FILE "08. Torch Song.wav" WAVE
INDEX 01 00:00:00
TRACK 09 AUDIO
TITLE "Slainte Mhath"
PERFORMER "Marillion"
INDEX 00 04:04:68
FILE "09. Slainte Mhath.wav" WAVE
INDEX 01 00:00:00
TRACK 10 AUDIO
TITLE "Sugar Mice"
PERFORMER "Marillion"
INDEX 00 04:42:58
FILE "10. Sugar Mice.wav" WAVE
INDEX 01 00:00:00
TRACK 11 AUDIO
TITLE "The Last Straw: Happy Ending"
PERFORMER "Marillion"
INDEX 00 05:45:52
FILE "11. The Last Straw- Happy Ending.wav" WAVE
INDEX 01 00:00:00



Продолжительность: 52:18
Источник (релизер): мой рип

Если у вас возникли проблемы с закачкой Marillion ‎– Clutching At Straws (1987) FLAC от New-Team, перейдите по ссылке - там вы найдете решение своей проблемы.

Категория: Музыка

 

Скачать Marillion ‎– Clutching At Straws (1987) FLAC от New-Team бесплатно без регистрации

 

Информация
Посетители, находящиеся в группе Гости, не могут оставлять комментарии к данной публикации.
 
 
Скачать Marillion ‎– Clutching At Straws (1987) FLAC от New-Team бесплатно без регистрацииCopyright © 2019 .