Скачать Бомба [01-08 из 08] (2013) DVDRip-AVC от New-Team | лицензия бесплатно без регистрации






Перевод: не требуется
В ролях: Алексей Бардуков, Ольга Арнтгольц, Ольга Сутулова, Андрей Панин, Анатолий Кот, Олег Карпенко, Ирина Крутик, Антон Соколов, Александр Денисенко, Андрей Дебрин...

DVD9 R5)
Качество: DVDRip-AVC (Продолжительность: 8 серий ~ 44 мин.

Формат: MKV

Cубтитры: нет
Аудио: 48 kHz, АС3 2 ch, 128 kbps, русский

Жанр: боевик, история, драма
avproh ОценкаНикто ещё не поставил оценку КатегорияНаши сериалы Раздают0 Качают2 Сидер замечен14-01-2019 23:19:07 (6 месяцев назад) Добавлен20-12-2013 11:51:49 (68 месяцев назад) Размер4.73 GB (5080310370 Bytes)Год выпуска: 2013
Режиссер: Олег Фесенко

Оригинальная аудиодорожка: русский

Видео: 720x576@1024x576 (16:9), 25.000 fps, H264 ~ 1806 kbps avg, 0.174 bit/pixel
Описание: 1941 год. Жизнь студента физмеха Ленинградского индустриального института круто развернулась за один день, перед самой весенней сессией. Иван Гучков «попал на карандаш» майору Лобанову — начальнику отдела Разведывательного управления Ленинградского военного округа. Несколько месяцев спустя в советское ГРУ поступают сведения, что в США полным ходом идет секретная разработка мощнейшего атомного боеприпаса.
Советская разведка принимает решение завербовать Ивана в Неваду на объект «Х» — завод по производству обогащенного урана. Чтобы кандидатура Гучкова не вызывала подозрений, ему меняют не только имя и внешность, но и биографию. Иван перевоплощается в пропавшего без вести курсанта-морпеха Стенли Либера и теперь, будучи объявлен выжившим, он должен жениться на невесте Либера Шейле. Девушка самоотверженно делит с Иваном все его невзгоды и даже решает отправиться с ним в Неваду. Постепенно Иван забывает о собственной невесте Лике, оставшейся в Советском Союзе, да и неизвестно выжила ли она в блокадном Ленинграде.
Но жизнь разведчика непредсказуема: Шейлу, а затем Ивана арестовывают и депортируют в Советский Союз. Там Гучкову придется пройти все круги ада, прежде чем приступить к поискам тех, кто ему дорог и того, что ему нужно.



Страна: Украина / Star Media
Раздача от:
MediaInfo
Общее
Полное имя : Bomba.2013.O.DVDRip-AVC_[New-Team]_by_avproh1.mkv
Формат : Matroska
Версия формата : Version 2
Размер файла : 614 Мбайт
Продолжительность : 44 м.
Общий поток : 1935 Кбит/сек
Дата кодирования : UTC 2013-12-19 20:11:39
Программа кодирования : mkvmerge v6.1.0 ('Old Devil') built on Mar 4 2013 09:10:42
Библиотека кодирования : libebml v1.3.0 + libmatroska v1.4.0

Видео
Идентификатор : 1
Формат : AVC
Формат/Информация : Advanced Video Codec
Профиль формата : High@L4.1
Параметр CABAC формата : Да
Параметр ReFrames формата : 6 кадров
Идентификатор кодека : V_MPEG4/ISO/AVC
Продолжительность : 44 м.
Битрейт : 1806 Кбит/сек
Ширина : 720 пикселей
Высота : 576 пикселей
Соотношение сторон : 16:9
Режим частоты кадров : Постоянный
Частота кадров : 25,000 кадров/сек
Стандарт вещания : PAL
Цветовое пространство : YUV
Субдискретизация насыщенности : 4:2:0
Битовая глубина : 8 бит
Тип развёртки : Прогрессивная
Бит/(Пиксели*Кадры) : 0.174
Размер потока : 561 Мбайт (91%)
Библиотека кодирования : x264 core 138 r2356 a1d3d17
Настройки программы : cabac=1 / ref=6 / deblock=1:-2:-1 / analyse=0x3:0x113 / me=umh / subme=10 / psy=1 / psy_rd=1.00:0.05 / mixed_ref=1 / me_range=32 / chroma_me=1 / trellis=2 / 8x8dct=1 / cqm=0 / deadzone=21,11 / fast_pskip=0 / chroma_qp_offset=-3 / threads=9 / lookahead_threads=1 / sliced_threads=0 / nr=0 / decimate=0 / interlaced=0 / bluray_compat=0 / constrained_intra=0 / bframes=8 / b_pyramid=2 / b_adapt=2 / b_bias=0 / direct=3 / weightb=1 / open_gop=0 / weightp=2 / keyint=250 / keyint_min=25 / scenecut=40 / intra_refresh=0 / rc=2pass / mbtree=0 / bitrate=1806 / ratetol=1.0 / qcomp=0.60 / qpmin=0 / qpmax=69 / qpstep=4 / cplxblur=20.0 / qblur=0.5 / ip_ratio=1.40 / pb_ratio=1.30 / aq=1:1.00
Default : Да
Forced : Нет

Аудио
Идентификатор : 2
Формат : AC-3
Формат/Информация : Audio Coding 3
Расширение режима : CM (complete main)
Параметр Endianness формата : Big
Идентификатор кодека : A_AC3
Продолжительность : 44 м.
Вид битрейта : Постоянный
Битрейт : 128 Кбит/сек
Каналы : 2 канала
Расположение каналов : Front: L R
Частота : 48,0 КГц
Битовая глубина : 16 бит
Метод сжатия : С потерями
Размер потока : 40,6 Мбайт (7%)
Default : Да
Forced : Нет

Скриншоты:

Залил

Если у вас возникли проблемы с закачкой Бомба [01-08 из 08] (2013) DVDRip-AVC от New-Team | лицензия, перейдите по ссылке - там вы найдете решение своей проблемы.

Категория: Наши сериалы

 

Скачать Бомба [01-08 из 08] (2013) DVDRip-AVC от New-Team | лицензия бесплатно без регистрации

 

Информация
Посетители, находящиеся в группе Гости, не могут оставлять комментарии к данной публикации.
 
 
Скачать Бомба [01-08 из 08] (2013) DVDRip-AVC от New-Team | лицензия бесплатно без регистрацииCopyright © 2019 .