Скачать Легион / Legion [S01] (2017) WEB-DLRip 720p | OmskBird бесплатно без регистрации






Информация о фильме
Оригинальное название: Legion
Качество: WEB-DLRip 720p
Аудио rus: AAC, 48 kHz, 2 ch, 192 Kbps | OmskBird
В ролях: Дэн Стивенс, МакКензи Грэй, Скотт Лоуренс, Кэтрин Аселтон, Джереми Харрис, Билл Ирвин, Рэйчел Келлер, Эмбер Мидфандер, Обри Плаза, Люк Росслер

Название: Легион
Страна: США, 20th Century Fox Television, 26 Keys Productions, FX Productions, Marvel Entertainment, Marvel Television, Walt Disney Television
Видео: 1280x720 (16:9), 23.976 fps, ~2900 kbps, 0.130 bit/pixel
Режиссер: Майкл Аппендаль, Ной Хоули, Дэнни Гордон
О фильме:
Дэвиду Хэллеру поставлен диагноз шизофрения. Постепенно выясняется, что картины и голоса, которые он видит и слышит, вполне реальны, а не бред его воспаленного разума.


Звук:
Реклама: присутствует
Перевод: Любительский (многоголосый закадровый) | OMSKBIRD records

Год выхода: 2017
Продолжительность: ~ 01:08:00 серия
Субтитры: отсутствуют
Релиз от: OmskBird ЗалилВнимание! Раздача ведётся путём добавления новых серий; при каждом добавлении создётся новый торрент. Чтобы начать докачку новой серии, пользователям необходимо сделать следующее:
Остановить скачивание.
Удалить старый торрент у себя из клиента (старые серии удалять не надо).
Скачать новый торрент и запустить его у себя в клиенте вместо старого, при этом указать клиенту путь в старую папку куда и должно происходить скачивание новых серий.
Ваш клиент при этом должен произвести хеширование (проверку) старой папки (если не производит сам - помогите ему сделать это), и будет докачивать только те серии которых у вас ещё нет. Старые серии при этом не удаляются, а продолжают раздаваться!
Eсли вы уже удалили старые серии, то предотвратить повторную закачку старых серий можно, отжав галочку в соответсвующих местах при запуске нового торрента. По возможности, желательно не удалять старые серии как можно дольше чтобы релизёр не столько продолжал раздавать старые серии, а смог сконцентрироваться на новых.


Кодек: MPEG-4
skyn s61 ОценкаНикто ещё не поставил оценку КатегорияЗарубежные сериалы Раздают0 Качают1 Сидер замечен03-03-2018 22:19:06 (17 месяцев назад) Добавлен31-03-2017 6:28:28 (28 месяцев назад) Размер8.81 GB (9461247735 Bytes)Семпл

Релиз:
Релиз: OmskBird
Перевод: Анна Киреева
Редактор: Никита Коваль
Роли озвучивали: Дмитрий Виноградов, Семён Ващенко, Павел Ярощик, Ольга Федорова
Звукорежиссер: Павел Квентов
Постер: Ксения Просветова
MediaInfo:
General
Complete name : G:FilmsLegion.S01.720p.WEB-DLRip.OmskBirdLegion.S01E01.720p.WEB-DLRip.OmskBird.mp4
Format : MPEG-4
Format profile : Base Media / Version 2
Codec ID : mp42 (mp42/mp41)
File size : 1.47 GiB
Duration : 1h 8mn
Overall bit rate mode : Variable
Overall bit rate : 3 066 Kbps
Encoded date : UTC 2017-02-10 06:52:25
Tagged date : UTC 2017-02-10 06:52:35
©TIM : 00:00:00:00
©TSC : 24000
©TSZ : 1001

Video
ID : 1
Format : AVC
Format/Info : Advanced Video Codec
Format profile : Main@L3.2
Format settings, CABAC : Yes
Format settings, ReFrames : 3 frames
Codec ID : avc1
Codec ID/Info : Advanced Video Coding
Duration : 1h 8mn
Bit rate : 2 873 Kbps
Width : 1 280 pixels
Height : 720 pixels
Display aspect ratio : 16:9
Frame rate mode : Constant
Frame rate : 23.976 (24000/1001) fps
Standard : PAL
Color space : YUV
Chroma subsampling : 4:2:0
Bit depth : 8 bits
Scan type : Progressive
Bits/(Pixel*Frame) : 0.130
Stream size : 1.37 GiB (94%)
Language : English
Encoded date : UTC 2017-02-10 06:52:25
Tagged date : UTC 2017-02-10 06:52:25
Color range : Limited
Color primaries : BT.709
Transfer characteristics : BT.709
Matrix coefficients : BT.709

Audio
ID : 2
Format : AAC
Format/Info : Advanced Audio Codec
Format profile : LC
Codec ID : 40
Duration : 1h 8mn
Source duration : 1h 8mn
Bit rate mode : Variable
Bit rate : 192 Kbps
Maximum bit rate : 297 Kbps
Channel(s) : 2 channels
Channel positions : Front: L R
Sampling rate : 48.0 KHz
Frame rate : 46.875 fps (1024 spf)
Compression mode : Lossy
Stream size : 92.8 MiB (6%)
Source stream size : 92.8 MiB (6%)
Language : English
Encoded date : UTC 2017-02-10 06:52:25
Tagged date : UTC 2017-02-10 06:52:25

Скриншоты

Внимание! Раздача ведётся путём добавления новых серий.
[color=brown]
Жанр: Фантастика, боевик, драма

Если у вас возникли проблемы с закачкой Легион / Legion [S01] (2017) WEB-DLRip 720p | OmskBird, перейдите по ссылке - там вы найдете решение своей проблемы.

Категория: Зарубежные сериалы

 

Скачать Легион / Legion [S01] (2017) WEB-DLRip 720p | OmskBird бесплатно без регистрации

 

Информация
Посетители, находящиеся в группе Гости, не могут оставлять комментарии к данной публикации.
 
 
Скачать Легион / Legion [S01] (2017) WEB-DLRip 720p | OmskBird бесплатно без регистрацииCopyright © 2019 .