Скачать Омен: Перерождение / The Prodigy (2019) BDRip-AVC от ExKinoRay | iTunes бесплатно без регистрации






Страна: США, Гонконг
Перевод: Дублированный | iTunes
Студия: Orion Pictures, Vinson Films, XYZ Films
Аудио #01: 48 kHz, AC3, 5.1, 384 Kbps | iTunes |Качество: BDRip-AVC
Субтитры: Английские

Оригинальное название: The Prodigy
Релиз от:

Продолжительность: 01:31:46
Автор релиза: ЗалилВидео: MPEG-4 AVC, 1024x428 (2.40:1), 23.976 fps, 1520 Kbps, 0.145 bit/pixel
RUS |
ENG |

ОтчетМедиаИнфо
General
Unique ID : 176403078473273663171438817606982616303 (0x84B5FF42B0F251949C47B6CD1A8EC4EF)
Complete name : D:The.Prodigy.2019.iTunes.BDRip.AVC.ExKinoRay.mkv
Format : Matroska
Format version : Version 2
File size : 1.51 GiB
Duration : 1 h 31 min
Overall bit rate : 2 354 kb/s
Movie name : The Prodigy 2019 from ExKinoRay
Encoded date : UTC 2019-05-08 11:57:25
Writing application : mkvmerge v5.6.0 ('Kenya Kane') built on May 27 2012 16:44:04
Writing library : libebml v1.2.3 + libmatroska v1.3.0

Video
ID : 1
Format : AVC
Format/Info : Advanced Video Codec
Format profile : High@L4.1
Format settings, CABAC : Yes
Format settings, ReFrames : 12 frames
Codec ID : V_MPEG4/ISO/AVC
Duration : 1 h 31 min
Bit rate : 1 520 kb/s
Width : 1 024 pixels
Height : 428 pixels
Display aspect ratio : 2.40:1
Frame rate mode : Constant
Frame rate : 23.976 (23976/1000) FPS
Color space : YUV
Chroma subsampling : 4:2:0
Bit depth : 8 bits
Scan type : Progressive
Bits/(Pixel*Frame) : 0.145
Stream size : 968 MiB (63%)
Title : Enigma
Writing library : x264 core 152 r2851 ba24899
Encoding settings : cabac=1 / ref=12 / deblock=1:-2:-2 / analyse=0x3:0x113 / me=umh / subme=10 / psy=1 / psy_rd=1.03:0.06 / mixed_ref=1 / me_range=32 / chroma_me=1 / trellis=2 / 8x8dct=1 / cqm=0 / deadzone=21,11 / fast_pskip=0 / chroma_qp_offset=-3 / threads=12 / lookahead_threads=3 / sliced_threads=0 / nr=0 / decimate=0 / interlaced=0 / bluray_compat=0 / constrained_intra=0 / bframes=10 / b_pyramid=2 / b_adapt=2 / b_bias=0 / direct=3 / weightb=1 / open_gop=0 / weightp=2 / keyint=240 / keyint_min=23 / scenecut=40 / intra_refresh=0 / rc=2pass / mbtree=0 / bitrate=1520 / ratetol=1.0 / qcomp=0.60 / qpmin=0 / qpmax=51 / qpstep=4 / cplxblur=20.0 / qblur=0.5 / ip_ratio=1.30 / pb_ratio=1.20 / aq=3:0.90
Language : English
Default : Yes
Forced : No
Color range : Limited
Color primaries : BT.709
Transfer characteristics : BT.709
Matrix coefficients : BT.709

Audio #1
ID : 2
Format : AC-3
Format/Info : Audio Coding 3
Mode extension : CM (complete main)
Format settings, Endianness : Big
Codec ID : A_AC3
Duration : 1 h 31 min
Bit rate mode : Constant
Bit rate : 384 kb/s
Channel(s) : 6 channels
Channel positions : Front: L C R, Side: L R, LFE
Sampling rate : 48.0 kHz
Frame rate : 31.250 FPS (1536 spf)
Compression mode : Lossy
Stream size : 252 MiB (16%)
Title : iTunes
Language : Russian
Default : Yes
Forced : No

Audio #2
ID : 3
Format : AC-3
Format/Info : Audio Coding 3
Mode extension : CM (complete main)
Format settings, Endianness : Big
Codec ID : A_AC3
Duration : 1 h 31 min
Bit rate mode : Constant
Bit rate : 448 kb/s
Channel(s) : 6 channels
Channel positions : Front: L C R, Side: L R, LFE
Sampling rate : 48.0 kHz
Frame rate : 31.250 FPS (1536 spf)
Compression mode : Lossy
Stream size : 294 MiB (19%)
Language : English
Default : No
Forced : No

Text
ID : 4
Format : UTF-8
Codec ID : S_TEXT/UTF8
Codec ID/Info : UTF-8 Plain Text
Language : English
Default : No
Forced : No

Menu
00:00:00.000 : en:1
00:10:06.000 : en:2
00:20:02.000 : en:3
00:33:59.000 : en:4
00:40:22.000 : en:5
00:50:15.000 : en:6
01:01:36.000 : en:7
01:09:53.000 : en:8
01:21:23.000 : en:9








Формат: MKV
Описание: История молодой матери, которая обеспокоена странным поведением своего восьмилетнего сына. Она считает, что причина такого поведения — нечто сверхъестественное.

Название: Омен: Перерождение
Год выхода: 2019
Enigma2010 ОценкаНикто ещё не поставил оценку КатегорияЗарубежные фильмы Раздают32 Качают1 Сидер замечен14-07-2019 2:19:11 (35 минут назад) Добавлен08-05-2019 15:05:31 (2 месяца назад) Размер1.51 GB (1620263394 Bytes)Режиссер: Николас МакКарти
Аудио #02: 48 kHz, AC3, 5.1, 448 Kbps | Оригинал |Жанр: Ужасы, триллер
В ролях: Тейлор Шиллинг, Джексон Роберт Скотт, Колм Фиор, Питер Муни, Пол Фото, Бриттани Аллен, Паула Бодро, Элиза Мулчерри, Олунике Аделийи, Джанет Лэнд, Мартин Роуч, Байрон Абалос, Эшли Блэк, Николас МакКарти

Если у вас возникли проблемы с закачкой Омен: Перерождение / The Prodigy (2019) BDRip-AVC от ExKinoRay | iTunes, перейдите по ссылке - там вы найдете решение своей проблемы.

Категория: Зарубежные фильмы

 

Скачать Омен: Перерождение / The Prodigy (2019) BDRip-AVC от ExKinoRay | iTunes бесплатно без регистрации

 

Информация
Посетители, находящиеся в группе Гости, не могут оставлять комментарии к данной публикации.
 
 
Скачать Омен: Перерождение / The Prodigy (2019) BDRip-AVC от ExKinoRay | iTunes бесплатно без регистрацииCopyright © 2019 .