Скачать Diamanda Galas - Guilty Guilty Guilty (2008) FLAC бесплатно без регистрации






Тип рипа: image+.cue
Страна исполнителя (группы): USA
Номер по каталогу: CDSTUMM274
Год издания: 2008
Портвейнгеноссе ОценкаНикто ещё не поставил оценку КатегорияМузыка Раздают0 Качают1 Сидер замечен30-06-2019 0:19:14 (14 дня назад) Добавлен10-12-2015 17:25:45 (44 месяца назад) Размер301.19 MB (315821044 Bytes)Страна-производитель диска (релиза): EU
Наличие сканов в содержимом раздачи: да

Аудиокодек: FLAC (*.flac)
Продолжительность: 00:41:59
Носитель: CD
Битрейт аудио: lossless
Издатель (лейбл): Mute Records
Треклист:
01 - 8 Men and 4 Women
02 - Long Black Veil
03 - Down so Low
04 - Interlude (Time)
05 - Autumn Leaves
06 - O Death
07 - Heaven have Mercy
Лог создания рипа
Exact Audio Copy V0.99 prebeta 4 from 23. January 2008

EAC extraction logfile from 10. December 2015, 14:33

Diamanda Galas / Guilty Guilty Guilty

Used drive : GIGABYTEGO-D1600C Adapter: 3 ID: 0

Read mode : Secure
Utilize accurate stream : Yes
Defeat audio cache : Yes
Make use of C2 pointers : No

Read offset correction : 12
Overread into Lead-In and Lead-Out : No
Fill up missing offset samples with silence : Yes
Delete leading and trailing silent blocks : No
Null samples used in CRC calculations : Yes
Used interface : Native Win32 interface for Win NT & 2000

Used output format : Internal WAV Routines
Sample format : 44.100 Hz; 16 Bit; Stereo

TOC of the extracted CD

Track | Start | Length | Start sector | End sector
---------------------------------------------------------
1 | 0:00.00 | 7:38.07 | 0 | 34356
2 | 7:38.07 | 5:38.65 | 34357 | 59771
3 | 13:16.72 | 4:12.15 | 59772 | 78686
4 | 17:29.12 | 4:25.08 | 78687 | 98569
5 | 21:54.20 | 6:39.22 | 98570 | 128516
6 | 28:33.42 | 9:00.55 | 128517 | 169071
7 | 37:34.22 | 4:25.43 | 169072 | 188989

Range status and errors

Selected range

Filename D:TempDiamanda Galas - Guilty Guilty Guilty - 2008Diamanda Galas - Guilty Guilty Guilty.wav

Peak level 100.0 %
Range quality 100.0 %
Test CRC 5237B6AB
Copy CRC 5237B6AB
Copy OK

No errors occurred

AccurateRip summary

Track 1 cannot be verified as accurate (confidence 8) [6C5F7FC8], AccurateRip returned [FE3A22F8]
Track 2 cannot be verified as accurate (confidence 8) [FD3932AB], AccurateRip returned [233308C7]
Track 3 cannot be verified as accurate (confidence 8) [0815B9EF], AccurateRip returned [64A58ABF]
Track 4 cannot be verified as accurate (confidence 8) [33B9A01B], AccurateRip returned [7C87F5B7]
Track 5 cannot be verified as accurate (confidence 8) [EAC5F4E0], AccurateRip returned [1FA90D2C]
Track 6 cannot be verified as accurate (confidence 8) [923F4810], AccurateRip returned [671B11EC]
Track 7 cannot be verified as accurate (confidence 9) [EBEF7AA3], AccurateRip returned [83B2AB8B]

No tracks could be verified as accurate
You may have a different pressing from the one(s) in the database

End of status report

ЗалилЖанр: Avant-Garde, Vocal jazz

Если у вас возникли проблемы с закачкой Diamanda Galas - Guilty Guilty Guilty (2008) FLAC, перейдите по ссылке - там вы найдете решение своей проблемы.

Категория: Музыка

 

Скачать Diamanda Galas - Guilty Guilty Guilty (2008) FLAC бесплатно без регистрации

 

Информация
Посетители, находящиеся в группе Гости, не могут оставлять комментарии к данной публикации.
 
 
Скачать Diamanda Galas - Guilty Guilty Guilty (2008) FLAC бесплатно без регистрацииCopyright © 2019 .