Скачать Команда «А» / The A-Team (2010) HDRip-AVC | Расширенная версия бесплатно без регистрации






Жанр: Боевик, триллер, комедия, приключения
Cубтитры:Режиссер: Джо Карнахан / Joe Carnahan

Описание: Группа ветеранов войны в Ираке, несправедливо обвиненных в преступлении, пытается найти истинных виновников и вернуть себе честное имя.

Год выпуска: 2010
chopper887

Оригинальная аудиодорожка:В ролях: Лиам Нисон, Брэдли Купер, Джессика Бил, Куинтон Джексон, Шарлто Копли, Патрик Уилсон, Джералд МакРэйни, Генри Черни, Юл Васкез, Брайан Блум

Продолжительность: 02:13:33

Видео: 1024x432 , 23.976 fps, x264, 1465 kbps
(Исх. The.A-Team.EXTENDED.1080p.BluRay.x264-ZMG)
CЭМПЛ

Аудио: 48 kHz, AC3 Dolby Digital, 3/2 (L,C,R,l,r) + LFE ch, ~448.00 kbpsАудио: 48 kHz, AC3 Dolby Digital, 3/2 (L,C,R,l,r) + LFE ch, ~384.00 kbpsДоп. информация:



Профессиональный (дублированный)

английский

HDRip-AVCcamus69 Оценка8.3 из 10 (3 голосов, самая низкая оценка - 7, самая высокая - 10) КатегорияЗарубежные фильмы Раздают1 Качают0 Сидер замечен14-07-2019 2:19:11 (4 минуты назад) Добавлен07-11-2010 12:25:45 (106 месяцев назад) Размер2.19 GB (2347541207 Bytes)Автор рипа :RUS
Страна: США
Формат субтитров: softsub (SRT)
MediaInfo
General
Complete name : J:The.A-Team.EXTENDED.DUB.2.18.chopper887.mkv
Format : Matroska
File size : 2.19 GiB
Duration : 2h 13mn
Overall bit rate : 2 343 Kbps
Movie name : The.A-Team.EXTENDED.DUB.chopper887
Encoded date : UTC 2010-11-07 06:32:05
Writing application : mkvmerge v3.0.0 ('Hang up your Hang-Ups') built on Dec 12 2009 15:20:35
Writing library : libebml v0.7.9 + libmatroska v0.8.1

Video
ID : 1
Format : AVC
Format/Info : Advanced Video Codec
Format profile : High@L4.1
Format settings, CABAC : Yes
Format settings, ReFrames : 6 frames
Muxing mode : Container profile=Unknown@4.1
Codec ID : V_MPEG4/ISO/AVC
Duration : 2h 13mn
Bit rate : 1 465 Kbps
Nominal bit rate : 1 511 Kbps
Width : 1 024 pixels
Height : 432 pixels
Display aspect ratio : 2.35:1
Frame rate : 23.976 fps
Resolution : 24 bits
Colorimetry : 4:2:0
Scan type : Progressive
Bits/(Pixel*Frame) : 0.138
Stream size : 1.37 GiB (62%)
Title : The.A-Team.EXTENDED.DUB.chopper887
Writing library : x264 core 104 r1713 c276662
Encoding settings : cabac=1 / ref=6 / deblock=1:-2:-1 / analyse=0x3:0x133 / me=umh / subme=9 / psy=1 / psy_rd=1.00:0.10 / mixed_ref=1 / me_range=32 / chroma_me=1 / trellis=2 / 8x8dct=1 / cqm=0 / deadzone=21,11 / fast_pskip=0 / chroma_qp_offset=-3 / threads=3 / sliced_threads=0 / nr=0 / decimate=1 / interlaced=0 / constrained_intra=0 / bframes=9 / b_pyramid=2 / b_adapt=2 / b_bias=0 / direct=3 / weightb=1 / open_gop=0 / weightp=2 / keyint=250 / keyint_min=23 / scenecut=40 / intra_refresh=0 / rc_lookahead=80 / rc=2pass / mbtree=1 / bitrate=1511 / ratetol=1.0 / qcomp=0.60 / qpmin=10 / qpmax=51 / qpstep=4 / cplxblur=20.0 / qblur=0.5 / ip_ratio=1.40 / aq=1:1.00
Language : English

Audio #1
ID : 2
Format : AC-3
Format/Info : Audio Coding 3
Codec ID : A_AC3
Duration : 2h 13mn
Bit rate mode : Constant
Bit rate : 448 Kbps
Channel(s) : 6 channels
Channel positions : Front: L C R, Surround: L R, LFE
Sampling rate : 48.0 KHz
Stream size : 428 MiB (19%)
Title : Дубляж

Audio #2
ID : 3
Format : AC-3
Format/Info : Audio Coding 3
Codec ID : A_AC3
Duration : 2h 13mn
Bit rate mode : Constant
Bit rate : 384 Kbps
Channel(s) : 6 channels
Channel positions : Front: L C R, Surround: L R, LFE
Sampling rate : 48.0 KHz
Stream size : 367 MiB (16%)
Title : Английский

Text #1
ID : 4
Format : UTF-8
Codec ID : S_TEXT/UTF8
Codec ID/Info : UTF-8 Plain Text
Title : Русские полные

Text #2
ID : 5
Format : UTF-8
Codec ID : S_TEXT/UTF8
Codec ID/Info : UTF-8 Plain Text
Title : Русские надписи

Text #3
ID : 6
Format : UTF-8
Codec ID : S_TEXT/UTF8
Codec ID/Info : UTF-8 Plain Text
Title : Английские


Скриншоты

ЗалилФормат видео:MKV

Перевод:русские , английские
Качество видео:ENG
Команда «А» / The A-Team [2010, США, Боевик, триллер, комедия, приключения, HDRip-AVC]

Если у вас возникли проблемы с закачкой Команда «А» / The A-Team (2010) HDRip-AVC | Расширенная версия, перейдите по ссылке - там вы найдете решение своей проблемы.

Категория: Зарубежные фильмы

 

Скачать Команда «А» / The A-Team (2010) HDRip-AVC | Расширенная версия бесплатно без регистрации

 

Информация
Посетители, находящиеся в группе Гости, не могут оставлять комментарии к данной публикации.
 
 
Скачать Команда «А» / The A-Team (2010) HDRip-AVC | Расширенная версия бесплатно без регистрацииCopyright © 2019 .