Скачать О детях / On Children [S01] (2018) WEB-DL 1080p | KANSAI бесплатно без регистрации





Информация о фильме
Продолжительность: 01:39:47
Субтитры: английские,
Название: О детях
Реклама: Присутствует звуковая.

ОтчетМедиаИнфо
General
Unique ID : 240162102579964258889298509900167740289 (0xB4AD89DA4195E75EA9E55BB354F37B81)
Complete name : G:_kansaitorOn.Children.S01.1080p.WEBDL-KANSAIOn.Children.S01E01.Mothers.Remote.1080p.WEBDL-KANSAI.mkv
Format : Matroska
Format version : Version 4 / Version 2
File size : 2.64 GiB
Duration : 1 h 39 min
Overall bit rate mode : Variable
Overall bit rate : 3 790 kb/s
Encoded date : UTC 2019-02-28 08:43:58
Writing application : mkvmerge v6.7.0 ('Back to the Ground') 64bit built on Jan 8 2014 15:10:52
Writing library : libebml v1.3.0 + libmatroska v1.4.1

Video
ID : 1
Format : AVC
Format/Info : Advanced Video Codec
Format profile : Main@L4
Format settings, CABAC : Yes
Format settings, ReFrames : 3 frames
Codec ID : V_MPEG4/ISO/AVC
Duration : 1 h 39 min
Bit rate mode : Variable
Bit rate : 3 480 kb/s
Maximum bit rate : 5 220 kb/s
Width : 1 920 pixels
Height : 1 080 pixels
Display aspect ratio : 16:9
Frame rate mode : Constant
Frame rate : 29.970 (30000/1001) FPS
Color space : YUV
Chroma subsampling : 4:2:0
Bit depth : 8 bits
Scan type : Progressive
Bits/(Pixel*Frame) : 0.056
Stream size : 2.37 GiB (90%)
Writing library : x264 core 148 r2715 7e75228
Encoding settings : cabac=1 / ref=3 / deblock=1:0:0 / analyse=0x1:0x111 / me=umh / subme=10 / psy=1 / psy_rd=1.00:0.00 / mixed_ref=1 / me_range=24 / chroma_me=1 / trellis=2 / 8x8dct=0 / cqm=0 / deadzone=21,11 / fast_pskip=1 / chroma_qp_offset=-2 / threads=8 / lookahead_threads=1 / sliced_threads=0 / nr=0 / decimate=1 / interlaced=0 / bluray_compat=0 / stitchable=1 / constrained_intra=0 / bframes=2 / b_pyramid=0 / b_adapt=2 / b_bias=0 / direct=3 / weightb=1 / open_gop=0 / weightp=2 / keyint=60 / keyint_min=31 / scenecut=0 / intra_refresh=0 / rc_lookahead=60 / rc=2pass / mbtree=1 / bitrate=3480 / ratetol=1.0 / qcomp=0.50 / qpmin=6 / qpmax=51 / qpstep=4 / cplxblur=20.0 / qblur=0.5 / vbv_maxrate=5220 / vbv_bufsize=6960 / nal_hrd=vbr / filler=0 / ip_ratio=1.40 / aq=1:1.00
Default : Yes
Forced : No

Audio #1
ID : 2
Format : AC-3
Format/Info : Audio Coding 3
Mode extension : CM (complete main)
Format settings, Endianness : Big
Codec ID : A_AC3
Duration : 1 h 39 min
Bit rate mode : Constant
Bit rate : 192 kb/s
Channel(s) : 2 channels
Channel positions : Front: L R
Sampling rate : 48.0 kHz
Frame rate : 31.250 FPS (1536 spf)
Compression mode : Lossy
Stream size : 137 MiB (5%)
Title : KANSAI Studio
Language : Russian
Default : Yes
Forced : No

Audio #2
ID : 3
Format : E-AC-3
Format/Info : Audio Coding 3
Format settings, Endianness : Big
Codec ID : A_EAC3
Duration : 1 h 39 min
Bit rate mode : Constant
Bit rate : 128 kb/s
Channel(s) : 2 channels
Channel positions : Front: L R
Sampling rate : 48.0 kHz
Frame rate : 187.500 FPS (256 spf)
Compression mode : Lossy
Stream size : 91.4 MiB (3%)
Title : Mandarin
Language : Chinese
Default : No
Forced : No

Text
ID : 4
Format : UTF-8
Codec ID : S_TEXT/UTF8
Codec ID/Info : UTF-8 Plain Text
Language : English
Default : No
Forced : No

Скриншоты ЗалилВ ролях: Цзы-Чуань Лю, Синь Ю Лин, Эмилия Чен, Ю-Танг Ли, Сун Юань Чю, Синь-Лин Чунг, Цзюнь-Сюань Се, Кэ Суюнь, Чуан Чен Йе

Аудио №1: русский / AC3 / 2.0 / 48 kHz / 192 kbps
Перевод: Любительский [многоголосый] | KANSAI Studio
Качество: WEB-DL 1080p | On.Children.S01.1080p.NF.WEB-DL.DDP2.0.x264-NTb
KANSAI_STUDIO ОценкаНикто ещё не поставил оценку КатегорияЗарубежные сериалы Раздают2 Качают0 Сидер замечен14-07-2019 0:19:13 (4 минуты назад) Добавлен01-03-2019 17:18:43 (4 месяца назад) Размер14.65 GB (15729366638 Bytes)Жанр: фантастика, драма
Оригинальное название: On Children
Режиссер: Вэй-лин Чэнь
Описание:
Жуткие истории, показывающие мир, в котором люди сталкиваются с трагическими последствиями социального давления, родительского угнетения и семейных дисфункций.
Рейтинг:

Аудио №2: китайский / EAC3 / 2.0 / 48 kHz / 128 kbps
Видео: AVC, 1920x1080 (16:9), 3480 kbps, 29,970 fps, 0,056 bpp
Страна: Тайвань
Год выпуска: 2018
Формат: MKV

Если у вас возникли проблемы с закачкой О детях / On Children [S01] (2018) WEB-DL 1080p | KANSAI, перейдите по ссылке - там вы найдете решение своей проблемы.

Категория: Зарубежные сериалы

 

Скачать О детях / On Children [S01] (2018) WEB-DL 1080p | KANSAI бесплатно без регистрации

 

Информация
Посетители, находящиеся в группе Гости, не могут оставлять комментарии к данной публикации.
 
 
Скачать О детях / On Children [S01] (2018) WEB-DL 1080p | KANSAI бесплатно без регистрацииCopyright © 2019 .