Скачать РадиоБенд Александра Фокина - Концерт в Киеве [16.05] (2015) DVB бесплатно без регистрации







Перевод: не требуется

Жанр: Jazz
Контейнер: MPG
Видео: MPEG-2 720x576 4:3 4 562 Kbps 25.000 fps
Аудио кодек: MP2
Страна: Украина
Видео кодек: MPEG2
Качество: DVB
Описание:

Государственный академический оркестр "РадиоБенд Александра Фокина" был официально основан 1-го декабря 1999 года. Сегодня "РадиоБенд" является уникальным оркестром так называемого "шведского состава" или же комбо, получившим признание как один из лучших коллективов мира. Кстати, на американском континенте постоянно действующего в таком составе оркестра уже нет...
Основным действующим принципом успешного звучания оркестра и выдающейся его творческой чертой являются аудио и видеозаписи, сделанные только вживую (LIVE). "РадиоБенд" – универсальный оркестр, исполняющий серьезную, сложную инструментальную музыку в таких направлениях как джаз, фанк, фьюжн, латино, джаз-рок, ейсид-джаз, поп-джаз, а также популярную и танцевальную музыку.
На сцене вместе с оркестром выступили легендарные мировые музыканты, признанные мэтры джазового искусства - лучший саксофонист мира Эрик Мариенталь и уникальный виртуоз-перкусист Йоэль Дель Соль.


Аудио: MP2 192 Kbps 48.0 KHz 2 channels
СоставВиталий Делестьянов — клавишные
Станислав Луцкий — электроорган «Hammond»
Анатолий Михайлов — гитара
Армен Костандян — ударные
Йоэль Дель Соль — перкуссия
Валерий Ковальчук — баритон-саксофон
Eric Marienthal-саксофоны
Павел Гузев — тенор, винд-контроллер
Алексей Сагитов —тромбон, бас-труба
Дмитрий Приходько — труба
Александр Ильика — труба
Jamie Hovorka — труба
Александр Рукомойников — альт-саксофон
Алена Шарун — вокалистка
Асмик Сироян — вокалистка
Александр Фокин — клавишные(1-ый скриншот)
Треклист1.Westchester lady
2.Man go nucleosis
3.Gold jusk tine
4.Street life
5.Watermelon lady
6.Caravan
7.Papa was a rolling stone
8.Mercy
9.Birdland
10.All good
11.Avanjues
12.Mista
13.Гопак(соло на синтезаторе А.Фокин)
MIGeneral
Complete name : /media/user/Новый том/Fokin.mpg
Format : MPEG-PS
File size : 3.25 GiB
Duration : 1h 35mn
Overall bit rate mode : Variable
Overall bit rate : 4 866 Kbps
Writing library : (c) 1998-2010 Womble Multimedia, Inc. / MPEG Video Wizard DVD 5.0.0.114 (01/2010) / Mar 19 2011

Video
ID : 224 (0xE0)
Format : MPEG Video
Format version : Version 2
Format profile : Main@Main
Format settings, BVOP : Yes
Format settings, Matrix : Custom
Format settings, GOP : Variable
Duration : 1h 35mn
Bit rate mode : Variable
Bit rate : 4 562 Kbps
Width : 720 pixels
Height : 576 pixels
Display aspect ratio : 4:3
Frame rate : 25.000 fps
Standard : PAL
Color space : YUV
Chroma subsampling : 4:2:0
Bit depth : 8 bits
Scan type : Interlaced
Scan order : Top Field First
Compression mode : Lossy
Bits/(Pixel*Frame) : 0.440
Time code of first frame : 00:00:00:00
Time code source : Group of pictures header
Stream size : 3.06 GiB (94%)
Source encoded stream size : (c) 1998-2010 Womble Multimedia, Inc. / MPEG Video Wizard DVD 5.0.0.114 (01/2010) / Mar 19 2011
Writing library : (c) 1998-2010 Womble Multimedia, Inc. / MPEG Video Wizard DVD 5.0.0.114 (01/2010) / Mar 19 2011

Audio
ID : 192 (0xC0)
Format : MPEG Audio
Format version : Version 1
Format profile : Layer 2
Duration : 1h 35mn
Bit rate mode : Constant
Bit rate : 192 Kbps
Channel(s) : 2 channels
Sampling rate : 48.0 KHz
Compression mode : Lossy
Stream size : 131 MiB (4%)


Скриншоты
ЗалилVovan875 ОценкаНикто ещё не поставил оценку КатегорияМузыка Раздают0 Качают1 Сидер замечен28-12-2017 19:19:07 (19 месяцев назад) Добавлен06-06-2015 22:35:55 (50 месяцев назад) Размер3.25 GB (3491493888 Bytes)Год выпуска: 2015 г.

Продолжительность: 01:35:39

Если у вас возникли проблемы с закачкой РадиоБенд Александра Фокина - Концерт в Киеве [16.05] (2015) DVB, перейдите по ссылке - там вы найдете решение своей проблемы.

Категория: Музыка

 

Скачать РадиоБенд Александра Фокина - Концерт в Киеве [16.05] (2015) DVB бесплатно без регистрации

 

Информация
Посетители, находящиеся в группе Гости, не могут оставлять комментарии к данной публикации.
 
 
Скачать РадиоБенд Александра Фокина - Концерт в Киеве [16.05] (2015) DVB бесплатно без регистрацииCopyright © 2019 .