Скачать Джон Уик / John Wick (2014) BDRip 720p бесплатно без регистрации






Перевод: Профессиональный (полное дублирование), 3 x Авторский, Оригинальный
Живов
Качество: BDRip
Жанр: боевик, триллер
Семпл

В ролях: Киану Ривз (John Wick), Микаэл Нюквист (Viggo Tarasov), Элфи Оуэн-Аллен (Iosef Tarasov), Уиллем Дефо (Marcus), Дин Уинтерс (Avi), Эдрианн Палики (Ms. Perkins), Омер Барнеа (Gregori), Тоби Мур (Victor), Дэниэл Бернхард (Kirill), Бриджет Мойнэхэн (Helen), Джон Легуизамо (Aureilo), Иэн МакШейн (Winston)

Описание: Джон Уик на первый взгляд самый обычный среднестатистический американец, который ведет спокойную мирную жизнь. Однако мало кто знает, что в свое время он был наемным убийцей, причем одним из лучших профессионалов в своем деле. После того, как преступник угоняет его любимый «Мустанг», 1969 года выпуска, при этом убив его собаку Дейзи, которая была единственным напоминанием об умершей супруге, Джон вынужден вернуться к своему прошлому. Теперь Уик начинает охоту на человека, который имел неосторожность перейти ему дорогу, и он готов на все, чтобы отомстить ему...


Матвеев
Контейнер: MKV

Аудио №4: русский / AC3 / 5.1 / 48 kHz / 448 kbps /Аудио №1: русский / AC3 / 5.1 / 48 kHz / 448 kbps
Аудио №2: русский / AC3 / 5.1 / 48 kHz / 448 kbps /lesnik125 Оценка10 из 10 (2 голосов, самая низкая оценка - 10, самая высокая - 10) КатегорияЗарубежные фильмы Раздают6 Качают0 Сидер замечен29-05-2019 12:19:12 (59 минут назад) Добавлен21-03-2015 14:01:53 (51 месяц назад) Размер4.02 GB (4316226290 Bytes)Страна: США, Канада, Китай
Режиссер: Чад Стахелски / Chad Stahelski, Дэвид Лейтч / David Leitch

Навигация по главам: есть

Media Info
--------------------------------------------------------------------
x264 [info]: frame I:1077 Avg QP:13.31 size:107348
x264 [info]: frame P:33566 Avg QP:16.39 size: 34107
x264 [info]: frame B:110961 Avg QP:17.66 size: 12194
--------------------------------------------------------------------

Format : Matroska
Format version : Version 2
File size : 4.02 GiB
Duration : 1h 41mn
Overall bit rate : 5 686 Kbps
Movie name : = Джон Уик / John Wick BDRip 720p by SC Kosmos =
Encoded date : UTC 2015-03-20 10:11:15
Writing application : mkvmerge v3.3.0 ('Language') gebaut am Mar 24 2010 14:59:24
Writing library : libebml v0.8.0 + libmatroska v0.9.0

Video
ID : 1
Format : AVC
Format/Info : Advanced Video Codec
Format profile : High@L4.1
Format settings, CABAC : Yes
Format settings, ReFrames : 10 frames
Codec ID : V_MPEG4/ISO/AVC
Duration : 1h 41mn
Bit rate : 3 445 Kbps
Width : 1 280 pixels
Height : 534 pixels
Display aspect ratio : 2.40:1
Frame rate : 23.976 fps
Color space : YUV
Chroma subsampling : 4:2:0
Bit depth : 8 bits
Scan type : Progressive
Bits/(Pixel*Frame) : 0.210
Stream size : 2.36 GiB (59%)
Title : Джон Уик / John Wick BDRip 720p by SC Kosmos
Writing library : x264 core 146 r2538 121396c
Encoding settings : cabac=1 / ref=10 / deblock=1:-2:-2 / analyse=0x3:0x113 / me=esa / subme=11 / psy=1 / psy_rd=1.00:0.10 / mixed_ref=1 / me_range=32 / chroma_me=1 / trellis=2 / 8x8dct=1 / cqm=0 / deadzone=21,11 / fast_pskip=0 / chroma_qp_offset=-3 / threads=12 / lookahead_threads=3 / sliced_threads=0 / nr=0 / decimate=1 / interlaced=0 / bluray_compat=0 / constrained_intra=0 / bframes=10 / b_pyramid=2 / b_adapt=2 / b_bias=0 / direct=3 / weightb=1 / open_gop=0 / weightp=2 / keyint=240 / keyint_min=23 / scenecut=40 / intra_refresh=0 / rc=2pass / mbtree=0 / bitrate=3445 / ratetol=1.0 / qcomp=0.60 / qpmin=0 / qpmax=69 / qpstep=4 / cplxblur=20.0 / qblur=0.5 / ip_ratio=1.40 / pb_ratio=1.30 / aq=1:1.00 / zones=138870,145603,b=0.25
Language : English
Default : No
Forced : No

Audio #1
ID : 2
Format : AC-3
Format/Info : Audio Coding 3
Mode extension : CM (complete main)
Codec ID : A_AC3
Duration : 1h 41mn
Bit rate mode : Constant
Bit rate : 448 Kbps
Channel(s) : 6 channels
Channel positions : Front: L C R, Side: L R, LFE
Sampling rate : 48.0 KHz
Bit depth : 16 bits
Compression mode : Lossy
Stream size : 324 MiB (8%)
Title : Дубляж
Language : Russian
Default : Yes
Forced : No

Audio #2
ID : 3
Format : AC-3
Format/Info : Audio Coding 3
Mode extension : CM (complete main)
Codec ID : A_AC3
Duration : 1h 41mn
Bit rate mode : Constant
Bit rate : 448 Kbps
Channel(s) : 6 channels
Channel positions : Front: L C R, Side: L R, LFE
Sampling rate : 48.0 KHz
Bit depth : 16 bits
Compression mode : Lossy
Stream size : 324 MiB (8%)
Title : AVO ( Есарёв )
Language : Russian
Default : No
Forced : No

Audio #3
ID : 4
Format : AC-3
Format/Info : Audio Coding 3
Mode extension : CM (complete main)
Codec ID : A_AC3
Duration : 1h 41mn
Bit rate mode : Constant
Bit rate : 448 Kbps
Channel(s) : 6 channels
Channel positions : Front: L C R, Side: L R, LFE
Sampling rate : 48.0 KHz
Bit depth : 16 bits
Compression mode : Lossy
Stream size : 324 MiB (8%)
Title : AVO ( Живов )
Language : Russian
Default : No
Forced : No

Audio #4
ID : 5
Format : AC-3
Format/Info : Audio Coding 3
Mode extension : CM (complete main)
Codec ID : A_AC3
Duration : 1h 41mn
Bit rate mode : Constant
Bit rate : 448 Kbps
Channel(s) : 6 channels
Channel positions : Front: L C R, Side: L R, LFE
Sampling rate : 48.0 KHz
Bit depth : 16 bits
Compression mode : Lossy
Stream size : 324 MiB (8%)
Title : AVO ( Матвеев )
Language : Russian
Default : No
Forced : No

Audio #5
ID : 6
Format : AC-3
Format/Info : Audio Coding 3
Mode extension : CM (complete main)
Codec ID : A_AC3
Duration : 1h 41mn
Bit rate mode : Constant
Bit rate : 448 Kbps
Channel(s) : 6 channels
Channel positions : Front: L C R, Side: L R, LFE
Sampling rate : 48.0 KHz
Bit depth : 16 bits
Compression mode : Lossy
Stream size : 324 MiB (8%)
Language : English
Default : No
Forced : No

Text #1
ID : 7
Format : UTF-8
Codec ID : S_TEXT/UTF8
Codec ID/Info : UTF-8 Plain Text
Title : Forced
Language : Russian
Default : No
Forced : No

Text #2
ID : 8
Format : UTF-8
Codec ID : S_TEXT/UTF8
Codec ID/Info : UTF-8 Plain Text
Title : Full
Language : Russian
Default : No
Forced : No

Text #3
ID : 9
Format : UTF-8
Codec ID : S_TEXT/UTF8
Codec ID/Info : UTF-8 Plain Text
Language : English
Default : No
Forced : No

Text #4
ID : 10
Format : UTF-8
Codec ID : S_TEXT/UTF8
Codec ID/Info : UTF-8 Plain Text
Language : English
Default : No
Forced : No

Menu
00:00:00.000 : en:Chapter 01
00:04:57.504 : en:Chapter 02
00:12:21.865 : en:Chapter 03
00:17:07.733 : en:Chapter 04
00:26:25.165 : en:Chapter 05
00:32:40.249 : en:Chapter 06
00:36:24.596 : en:Chapter 07
00:42:16.032 : en:Chapter 08
00:45:33.270 : en:Chapter 09
00:55:02.506 : en:Chapter 10
00:59:27.563 : en:Chapter 11
01:06:13.427 : en:Chapter 12
01:14:15.908 : en:Chapter 13
01:19:13.037 : en:Chapter 14
01:27:29.786 : en:Chapter 15
01:32:24.787 : en:Chapter 16
01:41:12.649 : en:Chapter 17



Скриншоты


ЗалилMPAA: R - Лицам до 17 лет обязательно присутствие взрослого

Аудио №3: русский / AC3 / 5.1 / 48 kHz / 448 kbps /Видео: AVC, 1280x534 (2.40:1), 3445 kbps, 23,976 fps, 0,210 bpp
Год выпуска: 2014
Есарёв
Аудио №5: английский / AC3 / 5.1 / 48 kHz / 448 kbps
Субтитры: русские (Forced + Full), английские ( Full + SDH )

Продолжительность: 01:41:12

Если у вас возникли проблемы с закачкой Джон Уик / John Wick (2014) BDRip 720p, перейдите по ссылке - там вы найдете решение своей проблемы.

Категория: Зарубежные фильмы

 

Скачать Джон Уик / John Wick (2014) BDRip 720p бесплатно без регистрации

 

Информация
Посетители, находящиеся в группе Гости, не могут оставлять комментарии к данной публикации.
 
 
Скачать Джон Уик / John Wick (2014) BDRip 720p бесплатно без регистрацииCopyright © 2019 .