Скачать Освобождение [01-05 из 05] (1968-1971) Blu ray 1080p | Custom бесплатно без регистрации






Режиссер: Юрий Озеров
Видео #1: 1920x1080 (16:9), 24 fps, MPEG-4 AVC Video ~ 30913 kbps avg, High Profile 4.1
Производство: Мосфильм, Авала-фильм, Dino de Laurentiis Cinematografica (Италия), ПРФ-ЗФ (Польша), ТО «Старт», Киностудия Дефа, Zespol Filmowy
Жанр: Драма, мелодрама, военный
О фильме:
Историческая киноэпопея в пяти фильмах о событиях Великой Отечественной войны, где наряду с подлинными историческими лицами действуют вымышленные герои... Всего в картине действует 51 реальный исторический персонаж. Подбор актёров на роли этих персонажей оказался непростым делом. Главная проблема заключалась в том, что практически все прототипы героев фильма были ещё живы. Большинство из них занимали высокие посты и весьма интересовались тем, как будут выглядеть на экране. Нужно было не просто добиться портретного сходства, но и получить согласие самого прототипа (или кураторов съёмочного процесса) на изображение на экране этого прототипа тем или иным актёром. Создание фильма консультировали сотни специалистов и участников тех событий.

Список фильмов
В ролях: Николай Олялин, Лариса Голубкина, Борис Зайденберг, Сергей Никоненко, Михаил Ульянов, Владлен Давыдов, Василий Шукшин, Евгений Буренков, Дмитрий Франько, Юрий Каморный, Бухути Закариадзе, Михаил Ножкин, Иван Переверзев, Владислав Стржельчик, Анатолий Ромашин, Николай Рыбников, Валерий Носик, Владимир Коренев, Эдуард Изотов, Юрий Легков, Всеволод Санаев, Владимир Самойлов, Игорь Озеров, Сергей Харченко, Николай Рушковский, Константин Забелин, Виктор Авдюшко, Владимир Заманский, Клеон Протасов, Александр Афанасьев, Алексей Глазырин, Пётр Глебов, Григорий Михайлов, Пётр Щербаков, Роман Ткачук, Сергей Ляхницкий, Валерий Карен, Виктор Байков, Николай Боголюбов, Владимир Герасимов, Михаил Глузский, Николай Ерёменко (старший), Петр Любешкин, Иван Миколайчук, Лев Прыгунов, Роман Хомятов, Волдемар Акуратерс, Алексей Алексеев, Вадим Грачёв, Юлия Диоши, Юрий Мартынов, Юрий Померанцев, Михаил Постников, Алексей Преснецов, Олев Эскола, Анатолий Кузнецов, Николай Лебедев (II), Лев Поляков, Александр Смирнов, Александр Барушной, Виктор Борцов, Елизавета Алексеева (II), Леонид Довлатов, Николай Симкин, Юрий Дуров, Виктор Шахов, Иосиф (Сосо) Гогичайшвили, В. Вахлин, Владимир Разумовский, Фриц Диц

Формат: BDMV
Видео #3: 1920x1080 (16:9), 24 fps, MPEG-4 AVC Video ~ 21452 kbps avg, High Profile 4.1
Фильм третий. "Направление главного удара"
Посвящен операции "Багратион", в результате которой была полностью освобождена от фашистских войск Белоруссия, и войска Советской армии вышли к государственной границе...



Аудио: Dolby Digital Audio Russian 224 kbps 2.0 / 48 kHz / 224 kbps / DN -4dB

Фильм второй. "Прорыв"
Посвящен битве за Днепр и наступательной операции советских войск в 1944 г. В центре этого фильма судьба батальона, сражавшегося на этом плацдарме.



Видео #5: 1920x1080 (16:9), 24 fps, MPEG-4 AVC Video ~ 29715 kbps avg, High Profile 4.1
Качество: Blu Ray 1080p
Продолжительность: 01:31:34 + 01:28:37 + 02:10:38 + 01:25:34 + 01:13:37
Год выхода: 1968-1971
Перевод: Не требуется

Видео #4: 1920x1080 (16:9), 24 fps, MPEG-4 AVC Video ~ 29701 kbps avg, High Profile 4.1
admiralkz Оценка10 из 10 (7 голосов, самая низкая оценка - 10, самая высокая - 10) КатегорияНаши фильмы Раздают0 Качают1 Сидер замечен12-07-2019 19:19:13 (1 день назад) Добавлен29-11-2016 3:32:59 (32 месяца назад) Размер98.26 GB (105507505468 Bytes)Кодек: MPEG-4 AVC Video
Фильм четвертый. "Битва за Берлин"
1945 год. Последние месяцы войны. Именно в эти дни решалась судьба порабощенной Европы. Началась Висло-Одерская операция. Три фронта под командованием Конева, Жукова и Рокоссовского устремились к столице Германии. К Берлину идут и англо-американские войска. "Опередить русских", - предлагает Черчиль и начинаются тайные переговоры с эмиссарами Гитлера, разоблаченные Ялтинской конференцией. Судьба Берлина решится на полях сражений.



Видео #2: 1920x1080 (16:9), 24 fps, MPEG-4 AVC Video ~ 30578 kbps avg, High Profile 4.1
Название: Освобождение
Субтитры: Отсутствуют

BDInfo Report: Фильм первый: Освобождение: Огненная дугаDISC INFO:

Disc Title: D1_BY_VOLSHEBNIK_HDCLUB
Disc Size: 44 482 193 112 bytes
Protection: AACS
BD-Java: Yes
Extras: 50Hz Content
BDInfo: 0.5.8

PLAYLIST REPORT:

Name: 00003.MPLS
Length: 1:31:34.333 (h:m:s.ms)
Size: 22 368 768 000 bytes
Total Bitrate: 32,57 Mbps

VIDEO:

Codec Bitrate Deion
----- ------- -----------
MPEG-4 AVC Video 30913 kbps 1080p / 24 fps / 16:9 / High Profile 4.1

AUDIO:

Codec Language Bitrate Deion
----- -------- ------- -----------
Dolby Digital Audio Russian 224 kbps 2.0 / 48 kHz / 224 kbps / DN -4dB

FILES:

Name Time In Length Size Total Bitrate
---- ------- ------ ---- -------------
00005.M2TS 0:00:00.000 1:31:34.333 22 368 768 000 32 570BDInfo report: Фильм второй: Освобождение: ПрорывDISC INFO:

Disc Title: D1_BY_VOLSHEBNIK_HDCLUB
Disc Size: 44 482 193 112 bytes
Protection: AACS
BD-Java: Yes
Extras: 50Hz Content
BDInfo: 0.5.8

PLAYLIST REPORT:

Name: 00004.MPLS
Length: 1:28:37.041 (h:m:s.ms)
Size: 21 414 518 784 bytes
Total Bitrate: 32,22 Mbps

VIDEO:

Codec Bitrate Deion
----- ------- -----------
MPEG-4 AVC Video 30578 kbps 1080p / 24 fps / 16:9 / High Profile 4.1

AUDIO:

Codec Language Bitrate Deion
----- -------- ------- -----------
Dolby Digital Audio Russian 224 kbps 2.0 / 48 kHz / 224 kbps / DN -4dB

FILES:

Name Time In Length Size Total Bitrate
---- ------- ------ ---- -------------
00007.M2TS 0:00:00.000 1:28:37.041 21 414 518 784 32 220BDInfo report: Фильм третий: Освобождение: Направление главного удараDISC INFO:

Disc Title: D2_BY_VOLSHEBNIK_HDCLUB
Disc Size: 22 938 927 102 bytes
Protection: AACS
BD-Java: Yes
Extras: 50Hz Content
BDInfo: 0.5.8

PLAYLIST REPORT:

Name: 00003.MPLS
Length: 2:10:38.708 (h:m:s.ms)
Size: 22 240 051 200 bytes
Total Bitrate: 22,70 Mbps

VIDEO:

Codec Bitrate Deion
----- ------- -----------
MPEG-4 AVC Video 21452 kbps 1080p / 24 fps / 16:9 / High Profile 4.1

AUDIO:

Codec Language Bitrate Deion
----- -------- ------- -----------
Dolby Digital Audio Russian 224 kbps 2.0 / 48 kHz / 224 kbps / DN -4dB

FILES:

Name Time In Length Size Total Bitrate
---- ------- ------ ---- -------------
00005.M2TS 0:00:00.000 2:10:38.708 22 240 051 200 22 698BDInfo report: Фильм четвертый: Освобождение: Битва за БерлинDISC INFO:

Disc Title: D3_BY_VOLSHEBNIK_HDCLUB
Disc Size: 38 086 385 254 bytes
Protection: AACS
BD-Java: Yes
Extras: 50Hz Content
BDInfo: 0.5.8

PLAYLIST REPORT:

Name: 00003.MPLS
Length: 1:25:34.166 (h:m:s.ms)
Size: 20 092 022 784 bytes
Total Bitrate: 31,31 Mbps

VIDEO:

Codec Bitrate Deion
----- ------- -----------
MPEG-4 AVC Video 29701 kbps 1080p / 24 fps / 16:9 / High Profile 4.1

AUDIO:

Codec Language Bitrate Deion
----- -------- ------- -----------
Dolby Digital Audio Russian 224 kbps 2.0 / 48 kHz / 224 kbps / DN -4dB

FILES:

Name Time In Length Size Total Bitrate
---- ------- ------ ---- -------------
00005.M2TS 0:00:00.000 1:25:34.166 20 092 022 784 31 307BDInfo report: Фильм пятый: Освобождение: Последний штурмDISC INFO:

Disc Title: D3_BY_VOLSHEBNIK_HDCLUB
Disc Size: 38 086 385 254 bytes
Protection: AACS
BD-Java: Yes
Extras: 50Hz Content
BDInfo: 0.5.8

PLAYLIST REPORT:

Name: 00004.MPLS
Length: 1:13:37.750 (h:m:s.ms)
Size: 17 295 446 016 bytes
Total Bitrate: 31,32 Mbps

VIDEO:

Codec Bitrate Deion
----- ------- -----------
MPEG-4 AVC Video 29715 kbps 1080p / 24 fps / 16:9 / High Profile 4.1

AUDIO:

Codec Language Bitrate Deion
----- -------- ------- -----------
Dolby Digital Audio Russian 224 kbps 2.0 / 48 kHz / 224 kbps / DN -4dB

FILES:

Name Time In Length Size Total Bitrate
---- ------- ------ ---- -------------
00007.M2TS 0:00:00.000 1:13:37.750 17 295 446 016 31 320Скриншоты ЗалилСтрана: СССР, Германия (ГДР), Польша, Италия
«Two great armies duel to the death with a million guns and ten thousand tanks... THE GREAT BATTLE»

Информация о фильме
Фильм пятый. "Последний штурм"
Последние дни войны, штурм рейхстага, сражение за каждый метр, за каждый этаж - и, наконец, водружение Знамени Победы над рейхстагом. Раздались первые залпы Победы. Главные герои фильма встречаются у входа в рейхстаг.



Фильм первый. "Огненная Дуга"
Повествует о грандиозной битве на Курской дуге летом 1943 г. Здесь произошло самое крупное в истории Второй мировой войны танковое сражение. Наряду с личными судьбами героев в фильме показаны батальные сцены, деятельность штабов и разведок, тех, кто трудился на фронте и в тылу.



Если у вас возникли проблемы с закачкой Освобождение [01-05 из 05] (1968-1971) Blu ray 1080p | Custom, перейдите по ссылке - там вы найдете решение своей проблемы.

Категория: Наши фильмы

 

Скачать Освобождение [01-05 из 05] (1968-1971) Blu ray 1080p | Custom бесплатно без регистрации

 

Информация
Посетители, находящиеся в группе Гости, не могут оставлять комментарии к данной публикации.
 
 
Скачать Освобождение [01-05 из 05] (1968-1971) Blu ray 1080p | Custom бесплатно без регистрацииCopyright © 2019 .