Скачать Ночной портье / Il portiere di notte / The Night Porter (1974) BDRip [720p] от HQ-ViDEO. бесплатно без регистрации






Release Info:
File Name .....: Nochnoy.Porte.1973.DUALRUS.BDRip.720p.h264.AC3.-HQ-ViDEO.mkv

Author ........: GYN

Runtime .......: 01:58:04 min
Video Format ..: MKV, H.264 codec
Video Bitrate .: 7 505 kbps
Bits per Pixel : 0.346 bit/pixel
Resolution ....: 1 280 x 692
Aspect Ratio ..: 1.85:1
Framerate .....: 23.976 fps

Audio First....: Russian AC3 Dolby Digital; 192.00 kbps; 2.0 Ch; 48 kHz
Audio Second...: Russian AC3 Dolby Digital; 192.00 kbps; 2.0 Ch; 48 kHz

Subtitle.......: Russian, English

File Size .....: 6,51 GB
Source.........: Blu-ray Disc



MediaInfo
General
Complete name : Nochnoy.Porte.1973.DUALRUS.BDRip.720p.h264.AC3.-HQ-ViDEO.mkv
Format : Matroska
Format version : Version 2
File size : 6.51 GiB
Duration : 1h 58mn
Overall bit rate mode : Variable
Overall bit rate : 7 894 Kbps
Movie name : Il portiere di notte (1973)
Encoded date : UTC 2012-01-12 08:45:47
Writing application : mkvmerge v3.3.0 ('Language') built on Mar 24 2010 14:59:24
Writing library : libebml v0.8.0 + libmatroska v0.9.0

Video
ID : 1
Format : AVC
Format/Info : Advanced Video Codec
Format profile : High@L4.1
Format settings, CABAC : Yes
Format settings, ReFrames : 6 frames
Codec ID : V_MPEG4/ISO/AVC
Duration : 1h 58mn
Bit rate mode : Variable
Bit rate : 7 505 Kbps
Width : 1 280 pixels
Height : 692 pixels
Display aspect ratio : 1.850
Frame rate : 23.976 fps
Color space : YUV
Chroma subsampling : 4:2:0
Bit depth : 8 bits
Scan type : Progressive
Bits/(Pixel*Frame) : 0.346
Stream size : 6.06 GiB (93%)
Title : Encoded by GYN

Audio #1
ID : 2
Format : AC-3
Format/Info : Audio Coding 3
Format profile : Dolby Digital
Mode extension : CM (complete main)
Codec ID : A_AC3
Duration : 1h 58mn
Bit rate mode : Constant
Bit rate : 192 Kbps
Channel(s) : 2 channels
Channel positions : Front: L R
Sampling rate : 48.0 KHz
Bit depth : 16 bits
Compression mode : Lossy
Stream size : 162 MiB (2%)
Title : DVO (Intervideo)
Language : Russian

Audio #2
ID : 3
Format : AC-3
Format/Info : Audio Coding 3
Format profile : Dolby Digital
Mode extension : CM (complete main)
Codec ID : A_AC3
Duration : 1h 58mn
Bit rate mode : Constant
Bit rate : 192 Kbps
Channel(s) : 2 channels
Channel positions : Front: L R
Sampling rate : 48.0 KHz
Bit depth : 16 bits
Compression mode : Lossy
Stream size : 162 MiB (2%)
Title : AVO (Gavrilov)
Language : Russian

Text #1
ID : 4
Format : UTF-8
Codec ID : S_TEXT/UTF8
Codec ID/Info : UTF-8 Plain Text
Language : Russian

Text #2
ID : 5
Format : UTF-8
Codec ID : S_TEXT/UTF8
Codec ID/Info : UTF-8 Plain Text
Language : English


Релиз:

Mozgoved Оценка1 из 10 (1 голосов, самая низкая оценка - 1, самая высокая - 1) КатегорияЗарубежные фильмы Раздают0 Качают1 Сидер замечен26-06-2019 20:19:13 (17 дней назад) Добавлен12-01-2012 18:21:42 (91 месяц назад) Размер6.67 GB (7160497058 Bytes)Описание: 1957 год. В венском отеле случайно встречаются бывший нацист и бывшая заключенная концлагеря. Пробудившиеся воспоминания, как палача, так и жертвы разжигают между ними странное, противоестественное влечение, которое психоаналитик назвал бы садомазохизмом.

*********** Il portiere di notte / The Night Porter (1974) ***********

Жанр: Драма.
Год: 1974.
Режиссер: Лилиана Кавани /Liliana Cavani/.
Страна: Италия.
Студия: Ital-Noleggio Cinematografico, Lotar Film Productions.
Язык: Русский профессиональный двухголосый перевод (Intervideo) + Авторский перевод Гаврилов + Английская дорожка (192/Отдельно).

Субтитры: Русские, Английские.

Скриншоты для оценки качества:





Release Date: 12.01.2012

В ролях: Дирк Богард /Dirk Bogarde/, Шарлотта Рэмплинг /Charlotte Rampling/, Филип Леруа /Philippe Leroy/, Габриэле Ферцетти /Gabriele Ferzetti/, Джузеппе Аддоббати /Giuseppe Addobbati/, Иза Миранда /Isa Miranda/, Нино Биньямини /Nino Bignamini/, Марино Мазе /Marino Mase/, Амедео Амодио /Amedeo Amodio/, Пьеро Вида /Piero Vida/.

ПРИЯТНОГО ПРОСМОТРА! Залил

Если у вас возникли проблемы с закачкой Ночной портье / Il portiere di notte / The Night Porter (1974) BDRip [720p] от HQ-ViDEO., перейдите по ссылке - там вы найдете решение своей проблемы.

Категория: Зарубежные фильмы

 

Скачать Ночной портье / Il portiere di notte / The Night Porter (1974) BDRip [720p] от HQ-ViDEO. бесплатно без регистрации

 

Информация
Посетители, находящиеся в группе Гости, не могут оставлять комментарии к данной публикации.
 
 
Скачать Ночной портье / Il portiere di notte / The Night Porter (1974) BDRip [720p] от HQ-ViDEO. бесплатно без регистрацииCopyright © 2019 .