Скачать Двойник / The Assignment (1997) DVDRip от New-Team | D бесплатно без регистрации





Год выпуска: 1997
Исходник:Продолжительность: 01:54:25

Видео: 624x352 (16:9), 25,000 fps, XviD ~ 778 kbps avg, 0.142 bit/pixel
Перевод: Профессиональный (полное дублирование)
Cубтитры: нет

Производство: Allegro Film Productions V, Allegro Films, Canadian Film or Video Production Tax Credit Program

Тип релиза:Описание:
Карлос Санчес, «Шакал». Многие годы этого имени было достаточно, чтобы вызвать страх у целой страны. Профессиональный террорист с холодным умом и безжалостным сердцем. Международный наемный убийца, который получал удовольствие, убивая невинных. Человек, от которого исходило зло и насилие. Ему всегда удавалось уйти. 20 лет ФБР и Моссад считали его целью номер один. И каждый раз он ускользал — как привидение в ночи. До тех пор, пока не появился Аннибал Рамирес, офицер флота, любящий муж и отец, у которого нет ничего общего с Карлосом, кроме одного: он, как две капли воды, похож на него…



Контейнер: AVI

Страна: Канада
Оригинальная аудиодорожка: нет
Раздача от:
MediaInfo
Общее
Полное имя : Двойник.1997.DVDRip-745_[New-team]_by_AVP_Studio.avi
Формат : AVI
Формат/Информация : Audio Video Interleave
Размер файла : 749 Мбайт
Продолжительность : 1 ч. 54 м.
Общий поток : 916 Кбит/сек
Программа кодирования : VirtualDubModRus 1.5.10.2 (build 2542/release)
Библиотека кодирования : VirtualDubMod build 2542/release

Видео
Идентификатор : 0
Формат : MPEG-4 Visual
Профиль формата : Advanced Simple@L5
Параметр BVOP формата : 1
Параметр QPel формата : Нет
Параметр GMC формата : Без точки перехода
Параметр матрицы формата : Выборочная
Идентификатор кодека : XVID
Идентификатор кодека/Подсказка : XviD
Продолжительность : 1 ч. 54 м.
Битрейт : 778 Кбит/сек
Ширина : 624 пикселя
Высота : 352 пикселя
Соотношение сторон : 16:9
Частота кадров : 25,000 кадров/сек
Цветовое пространство : YUV
Субдискретизация насыщенности : 4:2:0
Битовая глубина : 8 бит
Тип развёртки : Прогрессивная
Метод сжатия : С потерями
Бит/(Пиксели*Кадры) : 0.142
Размер потока : 637 Мбайт (85%)
Библиотека кодирования : XviD 73

Аудио
Идентификатор : 1
Формат : MPEG Audio
Версия формата : Version 1
Профиль формата : Layer 3
Идентификатор кодека : 55
Идентификатор кодека/Подсказка : MP3
Продолжительность : 1 ч. 54 м.
Вид битрейта : Постоянный
Битрейт : 128 Кбит/сек
Каналы : 2 канала
Частота : 48,0 КГц
Метод сжатия : С потерями
Размер потока : 105 Мбайт (14%)
Выравнивание : Соединение по промежуткам
Продолжительность промежутка : 40 мс. (1,00 видеокадр)
Время предзагрузки промежутка : 504 мс.
Библиотека кодирования : LAME3.99r
Настройки программы : -m s -V 4 -q 2 -lowpass 17 -b 128

Скриншоты

ЗалилРежиссер: Кристиан Дюге / Christian Duguay

Роли дублировали:
Андрей Гриневич, Владимир Еремин, Александр Белявский, Нина Тобилевич, Юрий Саранцев...

Аудио: 48 kHz, MP3 2.0, 128 kbps

В ролях:
Эйдан Куинн /Aidan Quinn/, Доналд Сазерленд /Donald Sutherland/, Бен Кингсли /Ben Kingsley/, Лилиана Коморовска /Liliana Komorowska/, Селин Бонье /Celine Bonnier/, Клаудиа Ферри /Claudia Ferri/, Власта Врана /Vlasta Vrana/, Вон Флорес /Von Flores/, Эл Уэксмэн /Al Waxman/...

Жанр: боевик, триллер, криминал
DVD5 R5
AVPStudio Оценка10 из 10 (1 голосов, самая низкая оценка - 10, самая высокая - 10) КатегорияЗарубежные фильмы Раздают0 Качают0 Сидер замечен13-07-2019 7:19:11 (13 часа назад) Добавлен18-06-2014 19:01:08 (62 месяца назад) Размер745.86 MB (782094336 Bytes)DVDRip

Если у вас возникли проблемы с закачкой Двойник / The Assignment (1997) DVDRip от New-Team | D, перейдите по ссылке - там вы найдете решение своей проблемы.

Категория: Зарубежные фильмы

 

Скачать Двойник / The Assignment (1997) DVDRip от New-Team | D бесплатно без регистрации

 

Информация
Посетители, находящиеся в группе Гости, не могут оставлять комментарии к данной публикации.
 
 
Скачать Двойник / The Assignment (1997) DVDRip от New-Team | D бесплатно без регистрацииCopyright © 2019 .