Скачать Шоу-бой (1991) DVDRip-AVC от ExKinoRay бесплатно без регистрации






Информация о фильме
Режиссер: Виктор Волков
Продолжительность: 01:30:12
Автор релиза: ЗалилСтрана: СССР, Киностудия им. М. Горького
Название: Шоу-бой
В ролях: Николай Сахаров, Александр Савченко, Павел Овчаров, Ирина Маркова, Юрий Дроздов, Игорь Муругов, Екатерина Гольтяпина, Валерий Беляев, Виктор Незнанов, Николай Тонский, Антон Табаков

filbi1976 Оценка10 из 10 (2 голосов, самая низкая оценка - 10, самая высокая - 10) КатегорияНаши фильмы Раздают3 Качают1 Сидер замечен13-07-2019 18:19:12 (4 минуты назад) Добавлен27-05-2016 18:05:57 (38 месяцев назад) Размер1.67 GB (1792511693 Bytes)Видео: MPEG-4 AVC, 2200 Кбит/с, 698x566@754x566
Качество: DVDRip-AVC
Жанр: Мелодрама
Звук: AC3, 6 ch, 448 Кбит/с


Скриншоты
Медиа-ИнфоОбщее
Уникальный идентификатор : 248312968741561993703344020693070704721 (0xBACF5694CB1A104391E5E757F518F051)
Полное имя : D:Шоу-бой_1991-DVDRip-AVC.mkv
Формат : Matroska
Версия формата : Version 2
Размер файла : 1,67 Гбайт
Продолжительность : 1 ч. 30 м.
Общий поток : 2650 Кбит/сек
Дата кодирования : UTC 2016-05-26 18:19:33
Программа кодирования : mkvmerge v5.8.0 ('No Sleep / Pillow') built on Sep 2 2012 15:37:04
Библиотека кодирования : libebml v1.2.3 + libmatroska v1.3.0

Видео
Идентификатор : 1
Формат : AVC
Формат/Информация : Advanced Video Codec
Профиль формата : High@L4.1
Параметр CABAC формата : Да
Параметр ReFrames формата : 14 кадров
Идентификатор кодека : V_MPEG4/ISO/AVC
Продолжительность : 1 ч. 30 м.
Битрейт : 2200 Кбит/сек
Ширина : 698 пикселей
Высота : 566 пикселей
Соотношение сторон : 4:3
Соотношение сторон в оригинале : 4:3
Режим частоты кадров : Постоянный
Частота кадров : 25,000 кадров/сек
Цветовое пространство : YUV
Субдискретизация насыщенности : 4:2:0
Битовая глубина : 8 бит
Тип развёртки : Прогрессивная
Бит/(Пиксели*Кадры) : 0.223
Размер потока : 1,35 Гбайт (81%)
Библиотека кодирования : x264 core 148 r2638 7599210
Настройки программы : cabac=1 / ref=14 / deblock=1:-2:-2 / analyse=0x3:0x133 / me=umh / subme=10 / psy=1 / psy_rd=0.85:0.10 / mixed_ref=1 / me_range=32 / chroma_me=1 / trellis=2 / 8x8dct=1 / cqm=0 / deadzone=21,11 / fast_pskip=0 / chroma_qp_offset=-3 / threads=12 / lookahead_threads=2 / sliced_threads=0 / nr=0 / decimate=0 / interlaced=0 / bluray_compat=0 / constrained_intra=0 / bframes=9 / b_pyramid=2 / b_adapt=2 / b_bias=0 / direct=3 / weightb=1 / open_gop=0 / weightp=2 / keyint=250 / keyint_min=25 / scenecut=40 / intra_refresh=0 / rc=2pass / mbtree=0 / bitrate=2200 / ratetol=1.0 / qcomp=0.63 / qpmin=0 / qpmax=39 / qpstep=4 / cplxblur=20.0 / qblur=0.5 / ip_ratio=1.40 / pb_ratio=1.30 / aq=1:0.80
Язык : English
Default : Да
Forced : Нет
Цветовой диапазон : Limited
Основные цвета : BT.601 PAL
Характеристики трансфера : BT.470 System B, BT.470 System G
Коэффициенты матрицы : BT.601

Аудио
Идентификатор : 2
Формат : AC-3
Формат/Информация : Audio Coding 3
Расширение режима : CM (complete main)
Параметр Endianness формата : Big
Идентификатор кодека : A_AC3
Продолжительность : 1 ч. 30 м.
Вид битрейта : Постоянный
Битрейт : 448 Кбит/сек
Каналы : 6 каналов
Расположение каналов : Front: L C R, Side: L R, LFE
Частота : 48,0 КГц
Метод сжатия : С потерями
Размер потока : 289 Мбайт (17%)
Default : Да
Forced : Нет

Меню
00:00:00.000 : ru:Chapter 1
00:06:07.800 : ru:Chapter 2
00:12:58.120 : ru:Chapter 3
00:18:25.480 : ru:Chapter 4
00:23:53.280 : ru:Chapter 5
00:30:43.240 : ru:Chapter 6
00:36:00.040 : ru:Chapter 7
00:42:19.200 : ru:Chapter 8
00:47:46.800 : ru:Chapter 9
00:53:55.560 : ru:Chapter 10
01:00:04.200 : ru:Chapter 11
01:06:12.520 : ru:Chapter 12
01:12:21.280 : ru:Chapter 13
01:17:48.920 : ru:Chapter 14
01:22:35.720 : ru:Chapter 15
01:27:45.000 : ru:Chapter 16
Кодек: x264
Релиз от:
Перевод: не требуется

О фильме:
Душераздирающая история о трагической любви молоденького солиста популярной тинэйджеровской поп-группы "Каникулы" Андрея Дымова и столь же юной, но вполне опытной и профессиональной "жрицы любви" Маши.

Год выхода: 1991

Если у вас возникли проблемы с закачкой Шоу-бой (1991) DVDRip-AVC от ExKinoRay, перейдите по ссылке - там вы найдете решение своей проблемы.

Категория: Наши фильмы

 

Скачать Шоу-бой (1991) DVDRip-AVC от ExKinoRay бесплатно без регистрации

 

Информация
Посетители, находящиеся в группе Гости, не могут оставлять комментарии к данной публикации.
 
 
Скачать Шоу-бой (1991) DVDRip-AVC от ExKinoRay бесплатно без регистрацииCopyright © 2019 .