Скачать Открытие / The Discovery (2017) WEBRip 1080p от qqss44 | NewStudio бесплатно без регистрации






Жанр: Фантастика, триллер, драма, мелодрама, детектив
Аудио: Русский, английский (AC3, 6 ch, 384 Кбит/с)
Информация о фильме
Год выпуска: 2017
Оригинальное название: The Discovery
qqss44 Оценка8.5 из 10 (10 голосов, самая низкая оценка - 5, самая высокая - 10) КатегорияЗарубежные фильмы Раздают14 Качают0 Сидер замечен13-07-2019 15:19:12 (4 минуты назад) Добавлен02-04-2017 23:49:08 (28 месяцев назад) Размер4.42 GB (4743109034 Bytes)Файл
Субтитры: нет
Продолжительность: ~ 01:42:01
Режиссер: Чарли МакДауэлл
Качество: WEBRip (1080p)
Видео: MPEG-4 AVC, 5000 Кбит/с, 1920x800
Название: Открытие
Выпущено: США, Endgame Entertainment, NetFlix, Protagonist Pictures
В ролях: Руни Мара, Райли Кио, Роберт Редфорд, Джейсон Сигел, Джесси Племонс, Катери ДеМартино, Рон Кэнада, Марк Бузенски, Брайан МакКарти

Перевод: Профессиональный (многоголосый, закадровый) - NewStudio



О фильме:
В далеком будущем ученым удается официально подтвердить существование жизни после смерти. Миллионы людей на Земле решили совершить самоубийство, полагая, что, таким образом, перезагрузят свою жизнь.

Реклама: нет
МИОбщее
Уникальный идентификатор : 232915024061998496571135791201412539099 (0xAF39CD4B89B718B69C52ED8F73DD62DB)
Формат : Matroska
Версия формата : Version 2
Размер файла : 4,42 Гбайт
Продолжительность : 1 ч. 42 м.
Общий поток : 6175 Кбит/сек
Дата кодирования : UTC 2017-04-02 19:44:58
Программа кодирования : mkvmerge v5.8.0 ('No Sleep / Pillow') built on Sep 2 2012 15:37:04
Библиотека кодирования : libebml v1.2.3 + libmatroska v1.3.0

Видео
Идентификатор : 1
Формат : AVC
Формат/Информация : Advanced Video Codec
Профиль формата : High@L4.1
Параметр CABAC формата : Да
Параметр ReFrames формата : 4 кадра
Идентификатор кодека : V_MPEG4/ISO/AVC
Продолжительность : 1 ч. 42 м.
Битрейт : 5284 Кбит/сек
Ширина : 1920 пикселей
Высота : 800 пикселей
Соотношение сторон : 2,40:1
Режим частоты кадров : Постоянный
Частота кадров : 23,976 кадра/сек
Цветовое пространство : YUV
Субдискретизация насыщенности : 4:2:0
Битовая глубина : 8 бит
Тип развёртки : Прогрессивная
Бит/(Пиксели*Кадры) : 0.143
Размер потока : 3,78 Гбайт (86%)
Библиотека кодирования : x264 core 148 r2744kMod b97ae06
Настройки программы : cabac=1 / ref=4 / deblock=1:-3:-3 / analyse=0x3:0x133 / me=umh / subme=11 / psy=1 / fade_compensate=0.00 / psy_rd=0.65:0.00 / mixed_ref=1 / me_range=32 / chroma_me=1 / trellis=2 / 8x8dct=1 / cqm=0 / deadzone=21,11 / fast_pskip=0 / chroma_qp_offset=-2 / threads=6 / lookahead_threads=1 / sliced_threads=0 / nr=0 / decimate=0 / interlaced=0 / bluray_compat=0 / constrained_intra=0 / bframes=8 / b_pyramid=2 / b_adapt=2 / b_bias=0 / direct=3 / weightb=1 / open_gop=0 / weightp=2 / keyint=250 / keyint_min=23 / scenecut=40 / intra_refresh=0 / rc=crf / mbtree=0 / crf=17.0000 / qcomp=0.65 / qpmin=0 / qpmax=69 / qpstep=4 / ip_ratio=1.30 / pb_ratio=1.20 / aq=3:1.00
Язык : English
Default : Да
Forced : Нет

Аудио #1
Идентификатор : 2
Формат : AC-3
Формат/Информация : Audio Coding 3
Расширение режима : CM (complete main)
Параметр Endianness формата : Big
Идентификатор кодека : A_AC3
Продолжительность : 1 ч. 42 м.
Вид битрейта : Постоянный
Битрейт : 384 Кбит/сек
Каналы : 6 каналов
Расположение каналов : Front: L C R, Side: L R, LFE
Частота : 48,0 КГц
Частота кадров : 31,250 кадров/сек (1536 spf)
Метод сжатия : С потерями
Размер потока : 281 Мбайт (6%)
Язык : Russian
Default : Да
Forced : Нет

Аудио #2
Идентификатор : 3
Формат : AC-3
Формат/Информация : Audio Coding 3
Расширение режима : CM (complete main)
Параметр Endianness формата : Big
Идентификатор кодека : A_AC3
Продолжительность : 1 ч. 42 м.
Вид битрейта : Постоянный
Битрейт : 384 Кбит/сек
Каналы : 6 каналов
Расположение каналов : Front: L C R, Side: L R, LFE
Частота : 48,0 КГц
Частота кадров : 31,250 кадров/сек (1536 spf)
Метод сжатия : С потерями
Размер потока : 281 Мбайт (6%)
Язык : English
Default : Нет
Forced : Нет



Залил

Если у вас возникли проблемы с закачкой Открытие / The Discovery (2017) WEBRip 1080p от qqss44 | NewStudio, перейдите по ссылке - там вы найдете решение своей проблемы.

Категория: Зарубежные фильмы

 

Скачать Открытие / The Discovery (2017) WEBRip 1080p от qqss44 | NewStudio бесплатно без регистрации

 

Информация
Посетители, находящиеся в группе Гости, не могут оставлять комментарии к данной публикации.
 
 
Скачать Открытие / The Discovery (2017) WEBRip 1080p от qqss44 | NewStudio бесплатно без регистрацииCopyright © 2019 .