Скачать Приключения кота Леопольда (1975-1987) HDRip бесплатно без регистрации






Информация о фильме
Перевод: Не требуется (оригинальный)
Режиссер: Анатолий Резников

CurHaJI ОценкаНикто ещё не поставил оценку КатегорияМультипликация Раздают24 Качают0 Сидер замечен13-07-2019 15:19:12 (4 минуты назад) Добавлен17-12-2016 19:40:17 (31 месяц назад) Размер747.63 MB (783950228 Bytes)Видео: XviD, 640x480, 25fps, 959kbps
Релиз от: ЗалилАудио: MPEG Layer 3, 2ch, 48000Hz, 128kbps



MediaInfo
Общее
Полное имя : Prikluchenia.Kota.Leopolda.1987.O.HDRip.700.CurHaJI.avi
Формат : AVI
Формат/Информация : Audio Video Interleave
Размер файла : 748 Мбайт
Продолжительность : 1 ч. 35 м.
Общий поток : 1097 Кбит/сек
Название фильма : Prikluchenia.Kota.Leopolda.1987.O.HDRip.700.CurHaJI
Программа кодирования : VirtualDubMod 1.5.10.3 | www.virtualdub-fr.org || (build 2550/release)
Библиотека кодирования : VirtualDub build 35491/release

Видео
Идентификатор : 0
Формат : MPEG-4 Visual
Профиль формата : Advanced Simple@L5
Параметр BVOP формата : 2
Параметр QPel формата : Нет
Параметр GMC формата : Без точки перехода
Параметр матрицы формата : Выборочная
Идентификатор кодека : XVID
Идентификатор кодека/Подсказка : XviD
Продолжительность : 1 ч. 35 м.
Битрейт : 959 Кбит/сек
Ширина : 640 пикселей
Высота : 480 пикселей
Соотношение сторон : 4:3
Частота кадров : 25,000 кадров/сек
Цветовое пространство : YUV
Субдискретизация насыщенности : 4:2:0
Битовая глубина : 8 бит
Тип развёртки : Прогрессивная
Метод сжатия : С потерями
Бит/(Пиксели*Кадры) : 0.125
Размер потока : 654 Мбайт (87%)
Библиотека кодирования : XviD 73

Аудио
Идентификатор : 1
Формат : MPEG Audio
Версия формата : Version 1
Профиль формата : Layer 3
Идентификатор кодека : 55
Идентификатор кодека/Подсказка : MP3
Продолжительность : 1 ч. 35 м.
Вид битрейта : Постоянный
Битрейт : 128 Кбит/сек
Каналы : 2 канала
Частота : 48,0 КГц
Метод сжатия : С потерями
Размер потока : 87,2 Мбайт (12%)
Выравнивание : Соединение по промежуткам
Продолжительность промежутка : 40 мс. (1,00 видеокадр)
Время предзагрузки промежутка : 504 мс.
Библиотека кодирования : LAME3.99r
Настройки программы : -m s -V 4 -q 2 -lowpass 17 -b 128
Скриншоты



Год выхода: 1975-1987
Страна: СССР
Роли озвучивали: Андрей Миронов, Геннадий Хазанов, Александр Калягин

Формат: avi
Жанр: Мультфильм, приключения
Качество: HDRip (BDRip.720p)
Студия: ТО "Экран"
Продолжительность: 01:35:16
Название: Приключения кота Леопольда
О фильме: Доброму коту Леопольду, постоянно досаждают две мышки, требующие взаимности...



Если у вас возникли проблемы с закачкой Приключения кота Леопольда (1975-1987) HDRip, перейдите по ссылке - там вы найдете решение своей проблемы.

Категория: Мультипликация

 

Скачать Приключения кота Леопольда (1975-1987) HDRip бесплатно без регистрации

 

Информация
Посетители, находящиеся в группе Гости, не могут оставлять комментарии к данной публикации.
 
 
Скачать Приключения кота Леопольда (1975-1987) HDRip бесплатно без регистрацииCopyright © 2019 .