Скачать Рождественская история / A Christmas Carol (2009) BDRemux 1080p от KORSAR | D, A бесплатно без регистрации





Навигация по главам: Есть

Аудио 3: Ukrainian: 48 kHz, Dolby Digital Audio, 5.1 ch, 640 kbps - DUB
О фильме
Это викторианская поучительная история о старом и ожесточившемся скупердяе Эбенезере Скрудже, который в течение одной ночи переживает испытание глубокого очищения. Мистер Скрудж — финансист/денежный меняла, который посвятил всю свою жизнь накоплению богатства. Он презирает всё, кроме денег, включая дружбу, любовь и рождественские праздники.


Релиз от:

Скриншоты
MediaInfoОбщее
Уникальный идентификатор : 199485716154103718543652714081387886637 (0x96138D29FBDAEC079D1CF2D279E1382D)
Полное имя : A.Christmas.Carol.2009.BDRemux.1080p.KORSAR.mkv
Формат : Matroska
Версия формата : Version 4 / Version 2
Размер файла : 19,6 Гбайт
Продолжительность : 1 ч. 35 м.
Режим общего битрейта : Переменный
Общий поток : 29,3 Мбит/сек
Название фильма : A.Christmas.Carol.2009.BDRemux.1080p.KORSAR
Дата кодирования : UTC 2018-12-26 16:50:15
Программа кодирования : mkvmerge v7.8.0 ('River Man') 32bit built on Apr 3 2015 12:11:22
Библиотека кодирования : libebml v1.3.1 + libmatroska v1.4.2

Видео
Идентификатор : 1
Формат : AVC
Формат/Информация : Advanced Video Codec
Профиль формата : High@L4.1
Параметр CABAC формата : Да
Параметр RefFrames формата : 4 кадра
Идентификатор кодека : V_MPEG4/ISO/AVC
Продолжительность : 1 ч. 35 м.
Вид битрейта : Переменный
Битрейт : 23,9 Мбит/сек
Максимальный битрейт : 28,0 Мбит/сек
Ширина : 1920 пикселей
Высота : 1080 пикселей
Соотношение сторон : 16:9
Режим частоты кадров : Постоянный
Частота кадров : 23,976 (24000/1001) кадра/сек
Цветовое пространство : YUV
Субдискретизация насыщенности : 4:2:0
Битовая глубина : 8 бит
Тип развёртки : Прогрессивная
Бит/(Пиксели*Кадры) : 0.481
Размер потока : 16,0 Гбайт (82%)
Заголовок : A.Christmas.Carol.2009.BDRemux.1080p.KORSAR
Язык : English
Default : Да
Forced : Нет
Цветовой диапазон : Limited
Основные цвета : BT.709
Характеристики трансфера : BT.709
Коэффициенты матрицы : BT.709

Аудио #1
Идентификатор : 2
Формат : AC-3
Формат/Информация : Audio Coding 3
Параметр Endianness формата : Big
Идентификатор кодека : A_AC3
Продолжительность : 1 ч. 35 м.
Вид битрейта : Постоянный
Битрейт : 640 Кбит/сек
Каналы : 6 каналов
Расположение каналов : Front: L C R, Side: L R, LFE
Частота : 48,0 КГц
Частота кадров : 31,250 кадров/сек (1536 SPF)
Битовая глубина : 16 бит
Метод сжатия : С потерями
Размер потока : 439 Мбайт (2%)
Заголовок : DUB
Язык : Russian
Default : Да
Forced : Нет

Аудио #2
Идентификатор : 3
Формат : AC-3
Формат/Информация : Audio Coding 3
Параметр Endianness формата : Big
Идентификатор кодека : A_AC3
Продолжительность : 1 ч. 35 м.
Вид битрейта : Постоянный
Битрейт : 448 Кбит/сек
Каналы : 6 каналов
Расположение каналов : Front: L C R, Side: L R, LFE
Частота : 48,0 КГц
Частота кадров : 31,250 кадров/сек (1536 SPF)
Битовая глубина : 16 бит
Метод сжатия : С потерями
Размер потока : 307 Мбайт (2%)
Заголовок : AVO, Ю. Сербин
Язык : Russian
Default : Нет
Forced : Нет

Аудио #3
Идентификатор : 4
Формат : AC-3
Формат/Информация : Audio Coding 3
Параметр Endianness формата : Big
Идентификатор кодека : A_AC3
Продолжительность : 1 ч. 35 м.
Вид битрейта : Постоянный
Битрейт : 640 Кбит/сек
Каналы : 6 каналов
Расположение каналов : Front: L C R, Side: L R, LFE
Частота : 48,0 КГц
Частота кадров : 31,250 кадров/сек (1536 SPF)
Битовая глубина : 16 бит
Метод сжатия : С потерями
Размер потока : 439 Мбайт (2%)
Заголовок : DUB
Язык : Ukrainian
Default : Нет
Forced : Нет

Аудио #4
Идентификатор : 5
Формат : DTS
Формат/Информация : Digital Theater Systems
Профиль формата : MA / Core
Режим : 16
Параметр Endianness формата : Big
Идентификатор кодека : A_DTS
Продолжительность : 1 ч. 35 м.
Вид битрейта : Переменный / Постоянный
Битрейт : 3633 Кбит/сек / 1509 Кбит/сек
Каналы : 6 каналов
Расположение каналов : Front: L C R, Side: L R, LFE
Частота : 48,0 КГц
Частота кадров : 93,750 кадра/сек (512 SPF)
Битовая глубина : 24 бит
Метод сжатия : Без потерь / Lossy
Размер потока : 2,43 Гбайт (12%)
Заголовок : Оригинал
Язык : English
Default : Нет
Forced : Нет

Текст #1
Идентификатор : 6
Формат : UTF-8
Идентификатор кодека : S_TEXT/UTF8
Идентификатор кодека/Информация : UTF-8 Plain Text
Продолжительность : 1 ч. 28 м.
Битрейт : 0 бит/сек
ElementCount : 16
Размер потока : 565 байт (0%)
Заголовок : Forced
Язык : Russian
Default : Нет
Forced : Нет

Текст #2
Идентификатор : 7
Формат : UTF-8
Идентификатор кодека : S_TEXT/UTF8
Идентификатор кодека/Информация : UTF-8 Plain Text
Продолжительность : 1 ч. 28 м.
Битрейт : 65 бит/сек
ElementCount : 780
Размер потока : 43,0 Кбайт (0%)
Заголовок : Full
Язык : Russian
Default : Нет
Forced : Нет

Текст #3
Идентификатор : 8
Формат : UTF-8
Идентификатор кодека : S_TEXT/UTF8
Идентификатор кодека/Информация : UTF-8 Plain Text
Продолжительность : 1 ч. 29 м.
Битрейт : 0 бит/сек
ElementCount : 18
Размер потока : 607 байт (0%)
Заголовок : Forced
Язык : Ukrainian
Default : Нет
Forced : Нет

Текст #4
Идентификатор : 9
Формат : UTF-8
Идентификатор кодека : S_TEXT/UTF8
Идентификатор кодека/Информация : UTF-8 Plain Text
Продолжительность : 1 ч. 28 м.
Битрейт : 55 бит/сек
ElementCount : 738
Размер потока : 36,0 Кбайт (0%)
Заголовок : Full
Язык : Ukrainian
Default : Нет
Forced : Нет

Текст #5
Идентификатор : 10
Формат : UTF-8
Идентификатор кодека : S_TEXT/UTF8
Идентификатор кодека/Информация : UTF-8 Plain Text
Продолжительность : 1 ч. 28 м.
Битрейт : 38 бит/сек
ElementCount : 720
Размер потока : 24,9 Кбайт (0%)
Заголовок : Full
Язык : English
Default : Нет
Forced : Нет

Текст #6
Идентификатор : 11
Формат : UTF-8
Идентификатор кодека : S_TEXT/UTF8
Идентификатор кодека/Информация : UTF-8 Plain Text
Продолжительность : 1 ч. 29 м.
Битрейт : 47 бит/сек
ElementCount : 984
Размер потока : 31,1 Кбайт (0%)
Заголовок : SDH
Язык : English
Default : Нет
Forced : Нет

Меню
00:00:00.000 : en:Chapter 1
00:05:00.000 : en:Chapter 2
00:10:00.000 : en:Chapter 3
00:15:00.000 : en:Chapter 4
00:20:00.000 : en:Chapter 5
00:25:00.000 : en:Chapter 6
00:30:00.000 : en:Chapter 7
00:35:00.000 : en:Chapter 8
00:40:00.000 : en:Chapter 9
00:45:00.000 : en:Chapter 10
00:50:00.000 : en:Chapter 11
00:55:00.000 : en:Chapter 12
01:00:00.000 : en:Chapter 13
01:05:00.000 : en:Chapter 14
01:10:00.000 : en:Chapter 15
01:15:00.000 : en:Chapter 16
01:20:00.000 : en:Chapter 17
01:25:00.000 : en:Chapter 18
01:30:00.000 : en:Chapter 19
01:35:00.000 : en:Chapter 20 ЗалилАудио 2: Russian: 48 kHz, Dolby Digital Audio, 5.1 ch, 448 kbps - AVO, Ю. Сербин
Выпущено: США, Walt Disney Pictures
Аудио 4: English: 48 kHz, DTS-HD Master Audio, 5.1 ch, 3633 kbps - Оригинал
Аудио 1: Russian: 48 kHz, Dolby Digital Audio, 5.1 ch, 640 kbps - DUB
Качество: BDRemux 1080p
Информация о фильме
Оригинальное название: A Christmas Carol
Перевод: Дублированный, авторский одноголосый
ptizelow Оценка10 из 10 (1 голосов, самая низкая оценка - 10, самая высокая - 10) КатегорияМультипликация Раздают5 Качают2 Сидер замечен13-07-2019 14:19:12 (4 минуты назад) Добавлен27-12-2018 23:05:35 (7 месяцев назад) Размер19.60 GB (21042820904 Bytes)Субтитры: Русские, украинские, английские
Файл
Название: Рождественская история
Жанр: Мультфильм, фэнтези, драма, семейный
Продолжительность: 01:35:48
В ролях: Джим Керри, Стив Валентайн, Дэрил Сабара, Сэйдж Райан, Эмбер Гейни Миде, Райан Очоа, Бобби Пейдж, Рон Боттитта, Сэмми Ханратти, Джулиан Холлоуэй, Гэри Олдман, Колин Фёрт, Кэри Элвис, Робин Райт, Боб Хоскинс, Жаки Барнбрук, Лесли Мэнвилл, Молли С. Куинн, Фэй Мастерсон, Лесли Хартер Земекис, Пол Блекторн, Майкл Хайланд, Керри Хойт, Джулин Рени, Фионнула Флэнаган, Рэймонд Очоа, Каллум Блу, Мэттью Хенерсон, Аарон Рэпк, Сонье Фортаг, Тара Пейдж, Джон Тодд
Контейнер: MKV
Видео: MPEG-4 AVC, 1920x1080, 23986 kbps, 23.976 fps
Режиссёр: Роберт Земекис / Robert Zemeckis
Год выпуска: 2009

Если у вас возникли проблемы с закачкой Рождественская история / A Christmas Carol (2009) BDRemux 1080p от KORSAR | D, A, перейдите по ссылке - там вы найдете решение своей проблемы.

Категория: Мультипликация

 

Скачать Рождественская история / A Christmas Carol (2009) BDRemux 1080p от KORSAR | D, A бесплатно без регистрации

 

Информация
Посетители, находящиеся в группе Гости, не могут оставлять комментарии к данной публикации.
 
 
Скачать Рождественская история / A Christmas Carol (2009) BDRemux 1080p от KORSAR | D, A бесплатно без регистрацииCopyright © 2019 .