Скачать Вернуть отправителю / Return to Sender (2015) BDRip 720p | P бесплатно без регистрации









Информация о фильме
О фильме: Медсестра, проживающая в маленьком городке, идет на свидание вслепую с человеком, который притворяется не тем, кто он есть на самом деле.





Режиссер: Фоад Микати
Формат: MKV
Аудио: Russian: AC3, 192 kb/s (2 ch) / English: DTS, 1510 kb/s (6 ch)


MI
Format : Matroska
Format version : Version 2
File size : 3.60 GiB
Duration : 1h 35mn
Overall bit rate : 5 371 Kbps
Encoded date : UTC 2016-01-15 13:09:54
Writing application : mkvmerge v7.8.0 ('River Man') 32bit built on Apr 3 2015 12:11:22
Writing library : libebml v1.3.1 + libmatroska v1.4.2

Video
ID : 1
Format : AVC
Format/Info : Advanced Video Codec
Format profile : High@L4.1
Format settings, CABAC : Yes
Format settings, ReFrames : 9 frames
Codec ID : V_MPEG4/ISO/AVC
Duration : 1h 35mn
Bit rate : 3 563 Kbps
Width : 1 280 pixels
Height : 690 pixels
Display aspect ratio : 1.85:1
Frame rate mode : Constant
Frame rate : 23.976 fps
Color space : YUV
Chroma subsampling : 4:2:0
Bit depth : 8 bits
Scan type : Progressive
Bits/(Pixel*Frame) : 0.168
Stream size : 2.39 GiB (66%)
Writing library : x264 core 142 r2431+42 c69a006 tMod [8-bit@4:2:0 X86_64]
Encoding settings : cabac=1 / ref=9 / deblock=1:-3:-3 / analyse=0x3:0x113 / me=umh / subme=11 / psy=1 / fade_compensate=0.00 / psy_rd=1.00:0.05 / mixed_ref=1 / me_range=32 / chroma_me=1 / trellis=2 / 8x8dct=1 / cqm=0 / deadzone=21,11 / fast_pskip=0 / chroma_qp_offset=-2 / threads=12 / lookahead_threads=2 / sliced_threads=0 / nr=0 / decimate=1 / interlaced=0 / bluray_compat=0 / constrained_intra=0 / fgo=0 / bframes=8 / b_pyramid=2 / b_adapt=2 / b_bias=0 / direct=3 / weightb=1 / open_gop=0 / weightp=2 / keyint=250 / keyint_min=23 / scenecut=40 / intra_refresh=0 / rc=crf / mbtree=0 / crf=18.9000 / qcomp=0.60 / qpmin=0:0:0 / qpmax=69:69:69 / qpstep=4 / ip_ratio=1.40 / pb_ratio=1.30 / aq=3:1.00 / aq-sensitivity=10.00 / aq-factor=1.00:1.00:1.00 / aq2=0 / aq3=0
Language : English
Default : Yes
Forced : No
Color range : Limited
Matrix coefficients : BT.709

Audio #1
ID : 2
Format : AC-3
Format/Info : Audio Coding 3
Mode extension : CM (complete main)
Format settings, Endianness : Big
Codec ID : A_AC3
Duration : 1h 35mn
Bit rate mode : Constant
Bit rate : 192 Kbps
Channel(s) : 2 channels
Channel positions : Front: L R
Sampling rate : 48.0 KHz
Bit depth : 16 bits
Compression mode : Lossy
Stream size : 132 MiB (4%)
Language : Russian
Default : Yes
Forced : No

Audio #2
ID : 3
Format : DTS
Format/Info : Digital Theater Systems
Mode : 16
Format settings, Endianness : Big
Codec ID : A_DTS
Duration : 1h 35mn
Bit rate mode : Constant
Bit rate : 1 509 Kbps
Channel(s) : 6 channels
Channel positions : Front: L C R, Side: L R, LFE
Sampling rate : 48.0 KHz
Bit depth : 24 bits
Compression mode : Lossy
Stream size : 1.01 GiB (28%)
Language : English
Default : No
Forced : NoСкриншоты






ОценкаНикто ещё не поставил оценку КатегорияЗарубежные фильмы Раздают6 Качают1 Сидер замечен13-07-2019 13:19:12 (4 минуты назад) Добавлен15-01-2016 16:26:10 (42 месяца назад) Размер3.60 GB (3861736527 Bytes)Озвучивание: Профессиональное (многоголосое) официальный звук


Файл
Год выхода: 2015
Название: Вернуть отправителю
Оригинальное название: Return to Sender
Продолжительность: 01:35:52
Видео: MPEG-4 AVC, 3563 kb/s, 1280x690
Качество: BDRip 720p
Выпущено: США / Boo Pictures
В ролях: Розамунд Пайк, Шайло Фернандес, Ник Нолти, Камрин Менхейн, Алекси Вассер, Румер Уиллис. Иллиана Даглас. Стивен Луис Граш, Донна ДюПлантье, Йен Барфорд


Жанр: триллер

Если у вас возникли проблемы с закачкой Вернуть отправителю / Return to Sender (2015) BDRip 720p | P, перейдите по ссылке - там вы найдете решение своей проблемы.

Категория: Зарубежные фильмы

 

Скачать Вернуть отправителю / Return to Sender (2015) BDRip 720p | P бесплатно без регистрации

 

Информация
Посетители, находящиеся в группе Гости, не могут оставлять комментарии к данной публикации.
 
 
Скачать Вернуть отправителю / Return to Sender (2015) BDRip 720p | P бесплатно без регистрацииCopyright © 2019 .