Скачать В стране невыученных уроков (1969) HDTVRip 720p от SDIncorporation | P бесплатно без регистрации




В стране невыученных уроков / In The Land of Unprepared Homework (1969) HDTVRip [720p] от SDIncorporation | P



Информация о фильме
О фильме:
Сказка о скверном ученике. Маленький лодырь попадает в фантастическую страну, где сталкивается с причудливыми образами собственных невыученных уроков. На пути ему попадаются Полтора Землекопа из неверно решенной арифметической задачи и всевозможные нелепицы, порожденные его же собственными ошибками.


Год выпуска: 1969
Продолжительность: 00:19:10
retvil Оценка10 из 10 (2 голосов, самая низкая оценка - 10, самая высокая - 10) КатегорияМультипликация Раздают4 Качают0 Сидер замечен13-07-2019 11:19:12 (4 минуты назад) Добавлен17-12-2015 9:14:45 (43 месяца назад) Размер696.01 MB (729821843 Bytes)Формат: MKV
Субтитры #1: Russian Subtitles


MI:
General
Unique ID : 224664630975000715742916347789877527697 (0xA904D58297E501DAA6DAA032C7154491)
Complete name : In.The.Land.of.Unprepared.Homework.720p.Russian.SDIncorporation.mkv
Format : Matroska
Format version : Version 4 / Version 2
File size : 696 MiB
Duration : 19mn 10s
Overall bit rate mode : Variable
Overall bit rate : 5 076 Kbps
Movie name : In The Land of Unprepared Homework [720p] (1969) © SDIncorporation
Encoded date : UTC 2015-12-16 22:02:10
Writing application : mkvmerge v8.6.1 ('Flying') 64bit
Writing library : libebml v1.3.3 + libmatroska v1.4.4

Video
ID : 1
Format : AVC
Format/Info : Advanced Video Codec
Format profile : Main@L3.1
Format settings, CABAC : Yes
Format settings, ReFrames : 3 frames
Codec ID : V_MPEG4/ISO/AVC
Duration : 19mn 10s
Bit rate mode : Variable
Bit rate : 4 626 Kbps
Maximum bit rate : 16.0 Mbps
Width : 960 pixels
Height : 720 pixels
Display aspect ratio : 4:3
Original display aspect rat : 16:9
Frame rate mode : Constant
Frame rate : 25.000 fps
Standard : NTSC
Color space : YUV
Chroma subsampling : 4:2:0
Bit depth : 8 bits
Scan type : Progressive
Bits/(Pixel*Frame) : 0.268
Stream size : 634 MiB (91%)
Title : Video
Default : Yes
Forced : No
Color range : Limited

Audio
ID : 2
Format : AC-3
Format/Info : Audio Coding 3
Mode extension : CM (complete main)
Format settings, Endianness : Big
Codec ID : A_AC3
Duration : 19mn 10s
Bit rate mode : Constant
Bit rate : 448 Kbps
Channel(s) : 6 channels
Channel positions : Front: L C R, Side: L R, LFE
Sampling rate : 48.0 KHz
Frame rate : 31.250 fps (1536 spf)
Compression mode : Lossy
Stream size : 61.4 MiB (9%)
Title : Russian
Language : Russian
Default : Yes
Forced : No

Text
ID : 3
Format : UTF-8
Codec ID : S_TEXT/UTF8
Codec ID/Info : UTF-8 Plain Text
Duration : 19mn 3s
Bit rate : 97 bps
Count of elements : 255
Stream size : 13.6 KiB (0%)
Title : Russian Subtitles
Language : Russian
Default : Yes
Forced : No





Оригинальное название: В стране невыученных уроков
Страна: СССР
Работа над релизом: Nod33Eset(retvil)
StreetDespair

Время раздачи: С 8:00 до 22:00

Перевод: Не требуется
Аудиокодек: AC3
Релиз от: ©SDIncorporation ЗалилЖанр: Мультфильм, Короткометражка, Семейный
Русское название: В стране невыученных уроков
Режиссер:
Битрейт аудио: 448 Kbps
Битрейт видео: ~5000 Kbps
Размер кадра: 960x720 pixels
Качество видео: HDTVRip 720p
Видеокодек: AVC
Аудио #1: Русский ( 48 kHz, AC3 Dolby Digital, 6 channels, 448 Kbps) — Профессиональный многоголосый закадровый

Если у вас возникли проблемы с закачкой В стране невыученных уроков (1969) HDTVRip 720p от SDIncorporation | P, перейдите по ссылке - там вы найдете решение своей проблемы.

Категория: Мультипликация

 

Скачать В стране невыученных уроков (1969) HDTVRip 720p от SDIncorporation | P бесплатно без регистрации

 

Информация
Посетители, находящиеся в группе Гости, не могут оставлять комментарии к данной публикации.
 
 
Скачать В стране невыученных уроков (1969) HDTVRip 720p от SDIncorporation | P бесплатно без регистрацииCopyright © 2019 .