Скачать Железный человек / Iron Man (2008) Hybrid-AVC | D | Open Matte бесплатно без регистрации







Информация о фильме
Название: Железный человек
Субтитры: Russian (forced, full-length), english

-=DoMiNo=- Оценка10 из 10 (1 голосов, самая низкая оценка - 10, самая высокая - 10) КатегорияЗарубежные фильмы Раздают15 Качают1 Сидер замечен13-07-2019 10:19:12 (4 минуты назад) Добавлен14-02-2019 19:52:27 (5 месяцев назад) Размер3.69 GB (3958035390 Bytes)Перевод: Профессиональный (дублированный)
Режиссер: Джон Фавро
Звук: AC3, 6 ch, 640 kbps - | Русский | -

О фильме:
Миллиардер изобретатель Тони Старк попадает в плен к Афганским террористам, которые пытаются заставить его создать оружие массового поражения. В тайне от своих захватчиков Старк конструирует высокотехнологичную киберброню, которая помогает ему сбежать. Однако по возвращению в США он узнаёт, что в совете директоров его фирмы плетётся заговор, чреватый страшными последствиями. Используя своё последнее изобретение, Старк пытается решить проблемы своей компании радикально...



Контейнер: .MKV
Выпущено: США
Качество: Hybrid-AVC
Продолжительность: 02:06:10
Год выхода: 2008
Blu-ray*****vs*****Open Matte

Жанр: Фантастика, боевик, приключения
Оригинальное название: Iron Man
В ролях: Роберт Дауни мл., Джефф Бриджес, Гвинет Пэлтроу, Терренс Ховард, Джон Фавро, Лесли Бибб, Шон Тоуб, Фаран Таир, Кларк Грегг, Билл Смитрович, Саид Бадрия, Пол Беттани

Видео: x264, 1024x576 (16:9), ~3460 Kb/s, 23.976 fps
Железный человек 2 / Iron Man 2 (2010) WEB-DLRip-AVC | D | Open Matte

ПримечанияOAR BluRay наложен поверх open matte WEB-DL с помощью AutoOverlay AviSynth plugin.
За предоставленный WEB-DL спасибо maksnew.
Хронометраж соответствует BD.M/Ix264 info: frame I:1479 Avg QP:18.16 size: 68334
x264 info: frame P:37682 Avg QP:19.04 size: 31942
x264 info: frame B:142338 Avg QP:20.35 size: 14367
x264 info: consecutive B-frames: 2.1% 2.3% 5.6% 18.6% 18.7% 35.5% 8.9% 2.3% 3.3% 2.1% 0.7%

General
Unique ID : 140269934264696608832415925735397575047 (0x698701B51C04AA9F077937D5E850C987)
Complete name : Железный человек.(2008).HybridRip-AVC.O.M.[-=DoMiNo=-].mkv
Format : Matroska
Format version : Version 4
File size : 3.69 GiB
Duration : 2 h 6 min
Overall bit rate : 4 183 kb/s
Movie name : Железный человек
Deion : Миллиардер изобретатель Тони Старк попадает в плен к Афганским террористам, которые пытаются заставить его создать оружие массового поражения. В тайне от своих захватчиков Старк конструирует высокотехнологичную киберброню, которая помогает ему сбежать. Однако по возвращению в США он узнаёт, что в совете директоров его фирмы плетётся заговор, чреватый страшными последствиями. Используя своё последнее изобретение, Старк пытается решить проблемы своей компании радикально…
Attachments : poster.jpg
COUNTRY : United States
DATE : 2008-04-30
DIRECTOR : Jon Favreau
GENRE : боевик, фантастика, приключения
ITUNEXTC : mpaa|PG-13|300|
ORIGINAL_TITLE : Iron Man
PRODUCER : Avi Arad, Kevin Feige
PUBLISHER : Marvel Studios
RATING : 7.89
WRITER : Art Marcum, Matt Holloway

Video
ID : 1
Format : AVC
Format/Info : Advanced Video Codec
Format profile : High@L4.1
Format settings : CABAC / 10 Ref Frames
Format settings, CABAC : Yes
Format settings, ReFrames : 10 frames
Codec ID : V_MPEG4/ISO/AVC
Duration : 2 h 6 min
Bit rate : 3 460 kb/s
Width : 1 024 pixels
Height : 576 pixels
Display aspect ratio : 16:9
Frame rate mode : Constant
Frame rate : 23.976 (24000/1001) FPS
Color space : YUV
Chroma subsampling : 4:2:0
Bit depth : 8 bits
Scan type : Progressive
Bits/(Pixel*Frame) : 0.245
Stream size : 3.05 GiB (83%)
Title : RIP_BY_-=DoMiNo=-
Writing library : x264 core 157 r2935 545de2f
Encoding settings : cabac=1 / ref=10 / deblock=1:-2:-2 / analyse=0x3:0x133 / me=umh / subme=11 / psy=1 / psy_rd=1.00:0.00 / mixed_ref=1 / me_range=32 / chroma_me=1 / trellis=2 / 8x8dct=1 / cqm=0 / deadzone=21,11 / fast_pskip=0 / chroma_qp_offset=-2 / threads=6 / lookahead_threads=1 / sliced_threads=0 / nr=0 / decimate=1 / interlaced=0 / bluray_compat=0 / constrained_intra=0 / bframes=10 / b_pyramid=2 / b_adapt=2 / b_bias=0 / direct=3 / weightb=1 / open_gop=0 / weightp=2 / keyint=250 / keyint_min=24 / scenecut=40 / intra_refresh=0 / rc_lookahead=120 / rc=crf / mbtree=0 / crf=18.0 / qcomp=0.80 / qpmin=16 / qpmax=69 / qpstep=4 / vbv_maxrate=50000 / vbv_bufsize=62500 / crf_max=0.0 / nal_hrd=none / filler=0 / ip_ratio=1.40 / pb_ratio=1.30 / aq=1:1.00
Language : Russian
Default : Yes
Forced : No
Color range : Limited
Color primaries : BT.709
Transfer characteristics : BT.709
Matrix coefficients : BT.709

Audio
ID : 2
Format : AC-3
Format/Info : Audio Coding 3
Commercial name : Dolby Digital
Codec ID : A_AC3
Duration : 2 h 6 min
Bit rate mode : Constant
Bit rate : 640 kb/s
Channel(s) : 6 channels
Channel layout : L R C LFE Ls Rs
Sampling rate : 48.0 kHz
Frame rate : 31.250 FPS (1536 SPF)
Bit depth : 16 bits
Compression mode : Lossy
Stream size : 578 MiB (15%)
Title : Dub
Language : Russian
Service kind : Complete Main
Default : Yes
Forced : No

Text #1
ID : 3
Format : UTF-8
Codec ID : S_TEXT/UTF8
Codec ID/Info : UTF-8 Plain Text
Title : Forced
Language : Russian
Default : Yes
Forced : No

Text #2
ID : 4
Format : UTF-8
Codec ID : S_TEXT/UTF8
Codec ID/Info : UTF-8 Plain Text
Language : Russian
Default : No
Forced : No

Text #3
ID : 5
Format : UTF-8
Codec ID : S_TEXT/UTF8
Codec ID/Info : UTF-8 Plain Text
Language : English
Default : No
Forced : No

Menu
00:00:00.000 : :Start / Surpise Attack
00:04:20.000 : :Las Vegas
00:09:06.350 : :The Morning After / Meet Pepper Potts
00:12:26.000 : :Jet-Set Babysitter
00:14:17.600 : :The Presentation: "That's How Dad Did It"
00:18:00.579 : :Survived: Electric Heart
00:26:03.000 : :The Plans: Our Ticket Out
00:32:07.000 : :The Escape
00:41:00.000 : :The Rescue
00:42:00.000 : :The Return
00:52:38.488 : :The Hanger: Old Friends
00:54:54.500 : :The Aftermath: Picking Up The Pieces
00:59:24.644 : :Test Flight
01:07:32.423 : :A Night On The Town
01:13:36.300 : :Goalmari: Righting Wrongs
01:18:31.206 : :Unidentified Bogie
01:24:40.575 : :The Gift Of Iron Soldiers
01:35:00.111 : :Arc Reaction
01:35:46.100 : :The Heartless Man
01:43:04.000 : :Iron Man vs. Monster Man
01:53:31.471 : :Official Statement
01:57:18.000 : :End CreditsСкриншоты Залил***Релиз от: -=DoMiNo=-

Если у вас возникли проблемы с закачкой Железный человек / Iron Man (2008) Hybrid-AVC | D | Open Matte, перейдите по ссылке - там вы найдете решение своей проблемы.

Категория: Зарубежные фильмы

 

Скачать Железный человек / Iron Man (2008) Hybrid-AVC | D | Open Matte бесплатно без регистрации

 

Информация
Посетители, находящиеся в группе Гости, не могут оставлять комментарии к данной публикации.
 
 
Скачать Железный человек / Iron Man (2008) Hybrid-AVC | D | Open Matte бесплатно без регистрацииCopyright © 2019 .