Скачать Гараж Джея Лено / Jay Leno's Garage [S01] (2015) WEBRip 720p | GreenРай Studio бесплатно без регистрации






Информация о фильме
Релиз от: ЗалилНаименование: Гараж Джея Лено
Внимание, имеется видео и аудио реклама от спонсора показа

Скриншоты

Перевод: Любительский одноголосый (GreenРай Studio)
Оригинальное наименование: Jay Leno's Garage
Продолжительность: 8 x 00:43:00

МедиаинфоGeneral
Unique ID : 197422524695194551999446689813370834079 (0x948631F8AC504345A438D8ADFE5D0C9F)
Complete name : E:ГРИНРАЙJay.Lenos.Garage.S01.WEB-DL.720pJay.Lenos.Garage.S01E01.WEB-DL.720p.mkv
Format : Matroska
Format version : Version 2
File size : 1.84 GiB
Duration : 43 min 53 s
Overall bit rate : 6 014 kb/s
Encoded date : UTC 2018-07-16 11:55:59
Writing application : mkvmerge v7.8.0 ('River Man') 32bit built on Apr 3 2015 12:11:22
Writing library : libebml v1.3.1 + libmatroska v1.4.2

Video
ID : 1
Format : AVC
Format/Info : Advanced Video Codec
Format profile : High@L3.1
Format settings : CABAC / 4 Ref Frames
Format settings, CABAC : Yes
Format settings, RefFrames : 4 frames
Codec ID : V_MPEG4/ISO/AVC
Duration : 43 min 53 s
Bit rate : 5 702 kb/s
Width : 1 280 pixels
Height : 720 pixels
Display aspect ratio : 16:9
Frame rate mode : Constant
Frame rate : 29.970 (29970/1000) FPS
Color space : YUV
Chroma subsampling : 4:2:0
Bit depth : 8 bits
Scan type : Progressive
Bits/(Pixel*Frame) : 0.206
Stream size : 1.75 GiB (95%)
Writing library : x264 core 146 r2538 121396c
Encoding settings : cabac=1 / ref=1 / deblock=1:0:0 / analyse=0x3:0x113 / me=hex / subme=2 / psy=1 / psy_rd=1.00:0.00 / mixed_ref=0 / me_range=16 / chroma_me=1 / trellis=0 / 8x8dct=1 / cqm=0 / deadzone=21,11 / fast_pskip=1 / chroma_qp_offset=0 / threads=18 / lookahead_threads=5 / sliced_threads=0 / nr=0 / decimate=1 / interlaced=0 / bluray_compat=0 / constrained_intra=0 / bframes=3 / b_pyramid=2 / b_adapt=1 / b_bias=0 / direct=1 / weightb=1 / open_gop=0 / weightp=1 / keyint=250 / keyint_min=25 / scenecut=40 / intra_refresh=0 / rc_lookahead=10 / rc=crf / mbtree=1 / crf=16.2 / qcomp=0.60 / qpmin=0 / qpmax=69 / qpstep=4 / ip_ratio=1.40 / aq=1:1.00
Default : Yes
Forced : No

Audio
ID : 2
Format : AC-3
Format/Info : Audio Coding 3
Codec ID : A_AC3
Duration : 43 min 53 s
Bit rate mode : Constant
Bit rate : 192 kb/s
Channel(s) : 2 channels
Channel positions : Front: L R
Sampling rate : 48.0 kHz
Frame rate : 31.250 FPS (1536 SPF)
Bit depth : 16 bits
Compression mode : Lossy
Stream size : 60.3 MiB (3%)
Service kind : Complete Main
Default : Yes
Forced : No

Качество: WEBRip 1080p
Видео данные: MKV, 1280x720 (16:9), 29.970 fps, 5702 Кбит/с
В главных ролях: Джей Лено, Дональд Осборн

Жанр: ТВ-шоу, авто, документальный
Год выхода: 2015
Аудио данные: AC3, 2 ch, 192 Кбит/с
GreenRayStudio ОценкаНикто ещё не поставил оценку КатегорияТелевизор Раздают1 Качают0 Сидер замечен09-07-2019 22:19:13 (3 дня назад) Добавлен19-07-2018 0:31:23 (12 месяца назад) Размер13.11 GB (14079973906 Bytes)Страна: США
О фильме: Джей Лено по праву он считается одним из самых авторитетных автожурналистов США. Он не только собрал одну из крупнейших коллекций автомобилей в Америке, но еще реставрирует и восстанавливает редкие модели. Важно, что все машины и мотоциклы в гараже – полноценные работоспособные экземпляры, готовые в любой момент выехать на дорогу. Начиналось все с канала на YouTube, на котором Джей Лено рассказывал об автомобилях и мотоциклах из своей коллекции, а также об интересных экземплярах других коллекционеров. Канал обрел огромную популярность, набрав более 1 миллиона подписчиков, и в 2015 году на канале CNBC вышел полноценный телевизионный сезон Гаража.



Если у вас возникли проблемы с закачкой Гараж Джея Лено / Jay Leno's Garage [S01] (2015) WEBRip 720p | GreenРай Studio, перейдите по ссылке - там вы найдете решение своей проблемы.

Категория: Телевизор

 

Скачать Гараж Джея Лено / Jay Leno's Garage [S01] (2015) WEBRip 720p | GreenРай Studio бесплатно без регистрации

 

Информация
Посетители, находящиеся в группе Гости, не могут оставлять комментарии к данной публикации.
 
 
Скачать Гараж Джея Лено / Jay Leno's Garage [S01] (2015) WEBRip 720p | GreenРай Studio бесплатно без регистрацииCopyright © 2019 .