Скачать Чемпион мира (1954) SATRip-AVC от New-Team бесплатно без регистрации





Описание:
Илья Громов слывет среди односельчан знатным силачом. Под руководством опытного тренера простой деревенский парень становится чемпионом мира по классической борьбе.



Cубтитры: нет
Оригинальная аудиодорожка: русский

В ролях:
Алексей Ванин, Василий Меркурьев, Владимир Гуляев, Надежда Чередниченко, Клавдия Хабарова, Муза Крепкогорская, Ратмир Васютинский, Анатолий Васютинский, Анатолий Соловьёв, Николай Комиссаров, Борис Терентьев, Георгий Светлани, Галина Фролова...
Источник:Формат видео: MKV

DVB
Раздача от:
MediaInfo
Общее
Полное имя : Chempion.mira.1954.SATRip-AVC_[New-team]_by_AVP_Studio.mkv
Формат : Matroska
Версия формата : Version 2
Размер файла : 1,09 Гбайт
Продолжительность : 1 ч. 20 м.
Общий поток : 1932 Кбит/сек
Дата кодирования : UTC 2016-04-11 11:55:03
Программа кодирования : mkvmerge v6.1.0 ('Old Devil') built on Mar 4 2013 09:10:42
Библиотека кодирования : libebml v1.3.0 + libmatroska v1.4.0

Видео
Идентификатор : 1
Формат : AVC
Формат/Информация : Advanced Video Codec
Профиль формата : High@L4.1
Параметр CABAC формата : Да
Параметр ReFrames формата : 10 кадров
Идентификатор кодека : V_MPEG4/ISO/AVC
Продолжительность : 1 ч. 20 м.
Битрейт : 1738 Кбит/сек
Ширина : 696 пикселей
Высота : 572 пикселя
Соотношение сторон : 4:3
Режим частоты кадров : Постоянный
Частота кадров : 25,000 кадров/сек
Цветовое пространство : YUV
Субдискретизация насыщенности : 4:2:0
Битовая глубина : 8 бит
Тип развёртки : Прогрессивная
Бит/(Пиксели*Кадры) : 0.175
Размер потока : 982 Мбайт (88%)
Библиотека кодирования : x264 core 148 r2597 e86f3a1
Настройки программы : cabac=1 / ref=10 / deblock=1:-2:-1 / analyse=0x3:0x113 / me=umh / subme=10 / psy=1 / psy_rd=1.00:0.00 / mixed_ref=1 / me_range=32 / chroma_me=1 / trellis=2 / 8x8dct=1 / cqm=0 / deadzone=21,11 / fast_pskip=1 / chroma_qp_offset=-2 / threads=6 / lookahead_threads=1 / sliced_threads=0 / nr=0 / decimate=0 / interlaced=0 / bluray_compat=0 / constrained_intra=0 / bframes=8 / b_pyramid=2 / b_adapt=2 / b_bias=0 / direct=3 / weightb=1 / open_gop=0 / weightp=2 / keyint=250 / keyint_min=25 / scenecut=40 / intra_refresh=0 / rc=2pass / mbtree=0 / bitrate=1738 / ratetol=1.0 / qcomp=0.60 / qpmin=0 / qpmax=69 / qpstep=4 / cplxblur=20.0 / qblur=0.5 / ip_ratio=1.40 / pb_ratio=1.30 / aq=1:1.00
Default : Да
Forced : Нет

Аудио
Идентификатор : 2
Формат : AC-3
Формат/Информация : Audio Coding 3
Расширение режима : CM (complete main)
Параметр Endianness формата : Big
Идентификатор кодека : A_AC3
Продолжительность : 1 ч. 20 м.
Вид битрейта : Постоянный
Битрейт : 192 Кбит/сек
Каналы : 2 канала
Расположение каналов : Front: L R
Частота : 48,0 КГц
Частота кадров : 31,250 кадров/сек (1536 spf)
Метод сжатия : С потерями
Размер потока : 111 Мбайт (10%)
Default : Да
Forced : Нет

Скриншоты

ЗалилНе требуется
Качество видео:Полный список актёров

Видео: 696->762x572 (4:3), 25 fps, H264 ~ 1738 kbps avg, 0.175 bit/pixel
Жанр: драма, спорт
AVPStudio ОценкаНикто ещё не поставил оценку КатегорияНаши фильмы Раздают2 Качают0 Сидер замечен12-07-2019 19:19:13 (41 минуту назад) Добавлен12-04-2016 12:26:43 (40 месяцев назад) Размер1.09 GB (1169320654 Bytes)Режиссер: Владимир Гончуков

Год выпуска: 1954
Страна: СССР
SATRip-AVC
Производство: Московская киностудия художественных фильмов им. М. Горького

Аудио: 48 kHz, Dolby Digital AC3 2.0, 192 kbps

Продолжительность: 01:20:43

Перевод:

Если у вас возникли проблемы с закачкой Чемпион мира (1954) SATRip-AVC от New-Team, перейдите по ссылке - там вы найдете решение своей проблемы.

Категория: Наши фильмы

 

Скачать Чемпион мира (1954) SATRip-AVC от New-Team бесплатно без регистрации

 

Информация
Посетители, находящиеся в группе Гости, не могут оставлять комментарии к данной публикации.
 
 
Скачать Чемпион мира (1954) SATRip-AVC от New-Team бесплатно без регистрацииCopyright © 2019 .