Скачать Эд и его покойная мамаша / Ed and His Dead Mother (1993) WEB-DL 1080p | P бесплатно без регистрации






Информация о фильме
Субтитры: Английские

Скриншоты MIФормат : Matroska
Версия формата : Version 2
Размер файла : 8,62 Гбайт
Продолжительность : 1 ч. 30 м.
Общий поток : 13,7 Мбит/сек
Название фильма : Ed.And.His.Dead.Mother.1993.1080p.AMZN.WEB-DL.by.zzZGVvv
Дата кодирования : UTC 2018-06-23 16:20:03
Программа кодирования : mkvmerge v5.8.0 ('No Sleep / Pillow') built on Sep 2 2012 15:37:04
Библиотека кодирования : libebml v1.2.3 + libmatroska v1.3.0
Attachements : cover.jpg

Видео
Идентификатор : 1
Формат : AVC
Формат/Информация : Advanced Video Codec
Профиль формата : High@L4
Параметр CABAC формата : Да
Параметр ReFrames формата : 4 кадра
Идентификатор кодека : V_MPEG4/ISO/AVC
Продолжительность : 1 ч. 30 м.
Битрейт : 12,7 Мбит/сек
Ширина : 1920 пикселей
Высота : 1080 пикселей
Соотношение сторон : 16:9
Режим частоты кадров : Постоянный
Частота кадров : 23,976 кадра/сек
Цветовое пространство : YUV
Субдискретизация насыщенности : 4:2:0
Битовая глубина : 8 бит
Тип развёртки : Прогрессивная
Бит/(Пиксели*Кадры) : 0.256
Размер потока : 8,02 Гбайт (93%)
Заголовок : Ed.And.His.Dead.Mother.1993.1080p.AMZN.WEB-DL
Язык : English
Default : Да
Forced : Нет
Цветовой диапазон : Limited
Основные цвета : BT.709
Характеристики трансфера : BT.709
Коэффициенты матрицы : BT.709

Аудио #1
Идентификатор : 2
Формат : AC-3
Формат/Информация : Audio Coding 3
Расширение режима : CM (complete main)
Параметр Endianness формата : Big
Идентификатор кодека : A_AC3
Продолжительность : 1 ч. 30 м.
Вид битрейта : Постоянный
Битрейт : 448 Кбит/сек
Каналы : 6 каналов
Расположение каналов : Front: L C R, Side: L R, LFE
Частота : 48,0 КГц
Метод сжатия : С потерями
Размер потока : 289 Мбайт (3%)
Заголовок : MVO
Язык : Russian
Default : Да
Forced : Нет

Аудио #2
Идентификатор : 3
Формат : E-AC-3
Формат/Информация : Audio Coding 3
Параметр Endianness формата : Big
Идентификатор кодека : A_EAC3
Продолжительность : 1 ч. 30 м.
Вид битрейта : Постоянный
Битрейт : 224 Кбит/сек
Каналы : 2 канала
Расположение каналов : Front: L R
Частота : 48,0 КГц
Метод сжатия : С потерями
Размер потока : 144 Мбайт (2%)
Язык : English
Default : Нет
Forced : Нет

Текст #1
Идентификатор : 4
Формат : UTF-8
Идентификатор кодека : S_TEXT/UTF8
Идентификатор кодека/Информация : UTF-8 Plain Text
Язык : English
Default : Нет
Forced : Нет

Текст #2
Идентификатор : 5
Формат : UTF-8
Идентификатор кодека : S_TEXT/UTF8
Идентификатор кодека/Информация : UTF-8 Plain Text
Заголовок : SDH
Язык : English
Default : Нет
Forced : Нет

ЗалилСтудия: Incorporated Television Company (ITC)
Перевод: Профессиональный многоголосый

user7447 Оценка5 из 10 (1 голосов, самая низкая оценка - 5, самая высокая - 5) КатегорияЗарубежные фильмы Раздают1 Качают0 Сидер замечен07-07-2019 1:19:12 (6 дней назад) Добавлен23-06-2018 21:21:52 (13 месяца назад) Размер8.62 GB (9250536314 Bytes)Видео: MPEG-4 AVC, 12.7 Mбит/с, 1920x1080
Качество: WEB-DL 1080p
Год выхода: 1993
Страна: США
Название: Эд и его покойная мамаша
О фильме:
Тихий и скромный молодой человек настолько любил свою покойную маму, что готов был на всё, лишь бы снова оказаться с той, которая так хорошо заботилась о нём. Поэтому когда ему предлагают за определенную сумму возвратить родительницу из царства мертвых, он соглашается, предварительно поторговавшись — как и полагается настоящему бизнесмену. Вернуть-то её вернули, но с мамочкой произошли ужасные изменения. Для того, чтобы «жить», ей нужна живая человеческая плоть. К этому сынок явно не готов.



Звук #1: AC3, 6 ch, 448 Кбит/с | Rus
Режиссер: Джонатан Уэкс
Кодек: x264
В ролях: Стив Бушеми, Мириам Марголис, Эрик Кристмас, Харпер Ройзман, Сэм Дженкинс, Нед Битти, Гэри Фармер, Роберт Харви, Джон Гловер, Джон Гриз

Оригинальное название: Ed and His Dead Mother
Жанр: Комедия
Продолжительность: 01:30:08
Звук #2: EAC3, 2 ch, 224 Кбит/с | Eng

Если у вас возникли проблемы с закачкой Эд и его покойная мамаша / Ed and His Dead Mother (1993) WEB-DL 1080p | P, перейдите по ссылке - там вы найдете решение своей проблемы.

Категория: Зарубежные фильмы

 

Скачать Эд и его покойная мамаша / Ed and His Dead Mother (1993) WEB-DL 1080p | P бесплатно без регистрации

 

Информация
Посетители, находящиеся в группе Гости, не могут оставлять комментарии к данной публикации.
 
 
Скачать Эд и его покойная мамаша / Ed and His Dead Mother (1993) WEB-DL 1080p | P бесплатно без регистрацииCopyright © 2019 .