Скачать Призрак дома на холме / The Haunting (1999) WEB-DLRip-AVC от 0ptimus | P, A бесплатно без регистрации





Название: Призрак дома на холме
Релиз от: Оценка10 из 10 (1 голосов, самая низкая оценка - 10, самая высокая - 10) КатегорияЗарубежные фильмы Раздают1 Качают0 Сидер замечен12-07-2019 0:19:12 (1 день назад) Добавлен21-05-2015 17:24:19 (50 месяцев назад) Размер2.41 GB (2584994747 Bytes)Перевод: Профессиональный многоголосый, авторский

Режиссер: Ян Де Бонт
Кодек: h.264
Видео: 1714 Кбит/с, 1024x430, 23.976 кадр/с

Призрак дома на холме
| The Haunting |

Информация о фильме
Качество: WEB-DLRip-AVC
В ролях: Кэтрин Зета-Джонс, Лиам Нисон, Лили Тэйлор, Оуэн Уилсон, Вирджиния Мэдсен, Брюс Дерн, Мэриан Селдерс, Аликс Коромзай, Тодд Филд, Майкл Кэвэно, Чарльз Ганнинг, М.С. Гэйни, Хэдли Юар

О фильме:
Жуткие легенды ходят вокруг зловещего особняка, известного как "Дом на холме". Огромный, величественный особняк, некогда принадлежавший богатейшему текстильному магнату Хью Крэйну, вот уже больше века стоит пустым. Больше века простоял на холме зловещий дом, построенный магнатом. Доктор Марроу (Лайам Нисон), занимающийся изучением сна, отбирает четырёх кандидатов, страдающих бессонницей, для проведения уникального научного эксперимента. Избранные Марроу молодые люди должны будут провести в мрачном доме Крэйна несколько дней. Но никто из участников этой затеи не предполагал, с каким чудовищным кошмаром им придётся столкнуться в реальном мире.



Звук:
• №1: Русский (AC3, 6 ch, 384 Кбит/с) Профессиональный многоголосый
• №2: Русский (AC3, 6 ch, 384 Кбит/с) Авторский [Леонид Володарский]
• №3: Русский (AC3, 2 ch, 192 Кбит/с) Авторский [Сергей Визгунов]
• №4: Английский (AC3, 6 ch, 384 Кбит/с)

Год выхода: 1999
Оригинальное название: The Haunting
Жанр: Мистика, ужасы, триллер
Страна: США
Продолжительность: 01:52:21
Субтитры: Русские, английские

MediaInfo
----------------------------------------------------------------------------------------------------------
x264 [info]: frame I:1092 Avg QP:15.17 size: 58473
x264 [info]: frame P:42297 Avg QP:17.97 size: 18662
x264 [info]: frame B:118630 Avg QP:19.58 size: 5009
x264 [info]: consecutive B-frames: 1.9% 6.4% 5.9% 64.3% 7.6% 10.2% 1.4% 1.2% 0.4% 0.2% 0.1% 0.2% 0.3%
----------------------------------------------------------------------------------------------------------

Полное имя : The.Haunting.1999.x264.WEB-DLRip-AVC.0ptimus.mkv
Формат : Matroska
Версия формата : Version 2
Размер файла : 2,41 Гбайт
Продолжительность : 1 ч. 52 м.
Общий поток : 3058 Кбит/сек
Название фильма : Призрак дома на холме | The Haunting [1999] -= WEB-DLRip (AVC) by 0ptimus =-
Дата кодирования : UTC 2015-05-20 07:12:35
Программа кодирования : mkvmerge v6.6.0 ('The Edge Of The In Between') built on Dec 1 2013 17:55:00
Библиотека кодирования : libebml v1.3.0 + libmatroska v1.4.1

Видео
Идентификатор : 1
Формат : AVC
Формат/Информация : Advanced Video Codec
Профиль формата : High@L4.1
Параметр CABAC формата : Да
Параметр ReFrames формата : 9 кадров
Идентификатор кодека : V_MPEG4/ISO/AVC
Продолжительность : 1 ч. 52 м.
Битрейт : 1714 Кбит/сек
Ширина : 1024 пикселя
Высота : 430 пикселей
Соотношение сторон : 2,40:1
Режим частоты кадров : Постоянный
Частота кадров : 23,976 кадра/сек
Цветовое пространство : YUV
Субдискретизация насыщенности : 4:2:0
Битовая глубина : 8 бит
Тип развёртки : Прогрессивная
Бит/(Пиксели*Кадры) : 0.162
Размер потока : 1,30 Гбайт (54%)
Заголовок : Rip by 0ptimus
Библиотека кодирования : x264 core 133 r2334 a3ac64b
Настройки программы : cabac=1 / ref=9 / deblock=1:-2:-1 / analyse=0x3:0x113 / me=umh / subme=11 / psy=1 / psy_rd=1.00:0.20 / mixed_ref=1 / me_range=32 / chroma_me=1 / trellis=2 / 8x8dct=1 / cqm=0 / deadzone=21,11 / fast_pskip=0 / chroma_qp_offset=-3 / threads=3 / lookahead_threads=1 / sliced_threads=0 / nr=0 / decimate=0 / interlaced=0 / bluray_compat=0 / constrained_intra=0 / bframes=12 / b_pyramid=2 / b_adapt=2 / b_bias=0 / direct=3 / weightb=1 / open_gop=0 / weightp=2 / keyint=240 / keyint_min=23 / scenecut=40 / intra_refresh=0 / rc_lookahead=40 / rc=2pass / mbtree=0 / bitrate=1714 / ratetol=1.0 / qcomp=0.60 / qpmin=0 / qpmax=69 / qpstep=4 / cplxblur=20.0 / qblur=0.5 / vbv_maxrate=50000 / vbv_bufsize=50000 / nal_hrd=none / ip_ratio=1.40 / pb_ratio=1.30 / aq=1:1.00
Язык : English
Default : Да
Forced : Да

Аудио #1
Идентификатор : 2
Формат : AC-3
Формат/Информация : Audio Coding 3
Расширение режима : CM (complete main)
Параметр Endianness формата : Big
Идентификатор кодека : A_AC3
Продолжительность : 1 ч. 52 м.
Вид битрейта : Постоянный
Битрейт : 384 Кбит/сек
Каналы : 6 каналов
Расположение каналов : Front: L C R, Side: L R, LFE
Частота : 48,0 КГц
Битовая глубина : 16 бит
Метод сжатия : С потерями
Размер потока : 310 Мбайт (13%)
Заголовок : Многоголосый AC3 5.1 @ 384 kbps
Язык : Russian
Default : Нет
Forced : Нет

Аудио #2
Идентификатор : 3
Формат : AC-3
Формат/Информация : Audio Coding 3
Расширение режима : CM (complete main)
Параметр Endianness формата : Big
Идентификатор кодека : A_AC3
Продолжительность : 1 ч. 52 м.
Вид битрейта : Постоянный
Битрейт : 384 Кбит/сек
Каналы : 6 каналов
Расположение каналов : Front: L C R, Side: L R, LFE
Частота : 48,0 КГц
Битовая глубина : 16 бит
Метод сжатия : С потерями
Размер потока : 310 Мбайт (13%)
Заголовок : Авторский [Леонид Володарский] AC3 5.1 @ 384 kbps
Язык : Russian
Default : Нет
Forced : Нет

Аудио #3
Идентификатор : 4
Формат : AC-3
Формат/Информация : Audio Coding 3
Расширение режима : CM (complete main)
Параметр Endianness формата : Big
Идентификатор кодека : A_AC3
Продолжительность : 1 ч. 52 м.
Вид битрейта : Постоянный
Битрейт : 192 Кбит/сек
Каналы : 2 канала
Расположение каналов : Front: L R
Частота : 48,0 КГц
Битовая глубина : 16 бит
Метод сжатия : С потерями
Размер потока : 155 Мбайт (6%)
Заголовок : Авторский [Сергей Визгунов] AC3 2.0 @ 192 kbps
Язык : Russian
Default : Нет
Forced : Нет

Аудио #4
Идентификатор : 5
Формат : AC-3
Формат/Информация : Audio Coding 3
Расширение режима : CM (complete main)
Параметр Endianness формата : Big
Идентификатор кодека : A_AC3
Продолжительность : 1 ч. 52 м.
Вид битрейта : Постоянный
Битрейт : 384 Кбит/сек
Каналы : 6 каналов
Расположение каналов : Front: L C R, Side: L R, LFE
Частота : 48,0 КГц
Битовая глубина : 16 бит
Метод сжатия : С потерями
Размер потока : 310 Мбайт (13%)
Заголовок : AC3 5.1 @ 384 kbps
Язык : English
Default : Нет
Forced : Нет

Текст #1
Идентификатор : 6
Формат : UTF-8
Идентификатор кодека : S_TEXT/UTF8
Идентификатор кодека/Информация : UTF-8 Plain Text
Язык : Russian
Default : Нет
Forced : Нет

Текст #2
Идентификатор : 7
Формат : UTF-8
Идентификатор кодека : S_TEXT/UTF8
Идентификатор кодека/Информация : UTF-8 Plain Text
Язык : English
Default : Нет
Forced : Нет

Меню
00:00:00.000 : :Credits
00:03:11.667 : :Hill House history
00:07:34.535 : :Expectations
00:10:09.835 : :Family skeleton
00:13:38.868 : :Eleanor's journey
00:15:45.535 : :Waiting for her
00:19:28.202 : :Mrs. Dudley's instructions
00:23:22.170 : :Alive
00:27:01.203 : :The only ones left
00:31:37.336 : :Uneasy explanations
00:36:11.036 : :Sleep well
00:41:24.503 : :Night noises
00:48:22.703 : :Supernaturally practical
00:52:09.703 : :Writing on the wall
00:56:37.337 : :Conservatory dance
00:59:27.038 : :Fearful heights
01:04:13.338 : :Girl talk
01:06:47.872 : :Cold spot
01:09:05.372 : :Whose hand?
01:13:28.372 : :Burden of fear
01:18:24.340 : :Hill House's monster
01:20:58.007 : :New ghost hunter
01:26:12.207 : :It knows I'm here
01:30:46.041 : :Bulging at the seams
01:33:06.174 : :Coming apart
01:35:58.042 : :The spiral staircase
01:39:59.876 : :Atop the stairs
01:43:40.510 : :Out of place
01:47:36.844 : :The accident
01:51:00.877 : :We who walk here
Скриншоты


Студия: Dream Works Pictures, Roth-Arnold Productions

Если у вас возникли проблемы с закачкой Призрак дома на холме / The Haunting (1999) WEB-DLRip-AVC от 0ptimus | P, A, перейдите по ссылке - там вы найдете решение своей проблемы.

Категория: Зарубежные фильмы

 

Скачать Призрак дома на холме / The Haunting (1999) WEB-DLRip-AVC от 0ptimus | P, A бесплатно без регистрации

 

Информация
Посетители, находящиеся в группе Гости, не могут оставлять комментарии к данной публикации.
 
 
Скачать Призрак дома на холме / The Haunting (1999) WEB-DLRip-AVC от 0ptimus | P, A бесплатно без регистрацииCopyright © 2019 .