Скачать Принцесса-лебедь 2: Тайна замка / The Swan Princess and the Secret of the Castle (1997) DVDRip-AVC от Тorrent-Хzona бесплатно без регистрации






Страна: США
О фильме

Качество: DVDRip-AVC
Студия: Nest Family Entertainment, Rich Animation Studios, Swan II LLC
Продолжительность: 01:09:00
Оригинальное название: The Swan princess and the Secret of the Castle
Файл
Звук: AC-3, 6 ch, 448 Кб/сек
MAGNAT231 Оценка10 из 10 (2 голосов, самая низкая оценка - 10, самая высокая - 10) КатегорияМультипликация Раздают0 Качают0 Сидер замечен12-07-2019 20:19:29 (2 часа назад) Добавлен22-06-2013 8:34:46 (74 месяца назад) Размер1.06 GB (1140538023 Bytes)Видео: MPEG4 AVC 1024 x 576, 25.000 fps, 1750 - 2200 Кбит/сек
Субтитры: Нет


MediaInfo:
General
Unique ID : 224779732406716449072517161581446008052 (0xA91B0072E83D5BA78D0E86BDA8518CF4)
Complete name : D:DownloadsThe.Swan.Princess.2.1995.x264.DVDRip.(AVC).by.Тorrent-Хzona.mkv
Format : Matroska
Format version : Version 2
File size : 1.06 GiB
Duration : 1h 9mn
Overall bit rate : 2 200 Kbps
Encoded date : UTC 2013-06-21 22:34:27
Writing application : mkvmerge v6.1.0 ('Old Devil') built on Mar 4 2013 09:10:42
Writing library : libebml v1.3.0 + libmatroska v1.4.0

Video
ID : 1
Format : AVC
Format/Info : Advanced Video Codec
Format profile : High@L4.1
Format settings, CABAC : Yes
Format settings, ReFrames : 4 frames
Codec ID : V_MPEG4/ISO/AVC
Duration : 1h 9mn
Bit rate : 1 750 Kbps
Width : 1 024 pixels
Height : 576 pixels
Display aspect ratio : 16:9
Frame rate mode : Constant
Frame rate : 25.000 fps
Color space : YUV
Chroma subsampling : 4:2:0
Bit depth : 8 bits
Scan type : Progressive
Bits/(Pixel*Frame) : 0.119
Stream size : 845 MiB (78%)
Writing library : x264 core 130 r2273 b3065e6
Encoding settings : cabac=1 / ref=3 / deblock=1:-1:-1 / analyse=0x3:0x111 / me=umh / subme=9 / psy=1 / psy_rd=1.00:0.15 / mixed_ref=1 / me_range=32 / chroma_me=1 / trellis=2 / 8x8dct=1 / cqm=0 / deadzone=21,11 / fast_pskip=0 / chroma_qp_offset=-3 / threads=3 / lookahead_threads=1 / sliced_threads=0 / nr=0 / decimate=1 / interlaced=0 / bluray_compat=0 / constrained_intra=0 / bframes=3 / b_pyramid=2 / b_adapt=0 / b_bias=0 / direct=1 / weightb=1 / open_gop=0 / weightp=2 / keyint=250 / keyint_min=25 / scenecut=40 / intra_refresh=0 / rc_lookahead=50 / rc=2pass / mbtree=1 / bitrate=1750 / ratetol=1.0 / qcomp=0.60 / qpmin=0 / qpmax=69 / qpstep=4 / cplxblur=20.0 / qblur=0.5 / ip_ratio=1.40 / aq=1:1.00
Default : Yes
Forced : No

Audio
ID : 2
Format : AC-3
Format/Info : Audio Coding 3
Mode extension : CM (complete main)
Format settings, Endianness : Big
Codec ID : A_AC3
Duration : 1h 9mn
Bit rate mode : Constant
Bit rate : 448 Kbps
Channel(s) : 6 channels
Channel positions : Front: L C R, Side: L R, LFE
Sampling rate : 48.0 KHz
Bit depth : 16 bits
Compression mode : Lossy
Stream size : 221 MiB (20%)
Default : Yes
Forced : No


Скриншоты



Перевод: Дублированный


Режиссер: Ричард Рич
Жанр: Приключения, мультфильм, фэнтези, детектив, семейный
Принц Дерек и принцесса Одетт счастливо живут в замке на Лебедином озере, а вместе с ними их давние друзья: черепашка Скороход, лягушонок Жан-Прыг и птичка Лейтенант Пуфин. Но вот в королевстве появляется коварный злодей, который всеми силами стремится заполучить магический шар, спрятанный в недрах Замка. Он заманивает Дерека в ловушку, и Одетт, чтобы спасти своего возлюбленного, снова превращается в лебедя. Удастся ли героям противостоять силам зла…



Год выхода: 1997
В ролях: Мишель Никастро, Дуглас Силлс, Джэйк Уильямсон, Кристи Лэндерс, Дональд Сэйдж Маккэй, Даг Стоун, Стив Винович, Джои Кармен

Релиз от: & ЗалилНазвание: Принцесса-лебедь 2: Тайна Замка
Формат: MKV
Инфомация о фильме

Если у вас возникли проблемы с закачкой Принцесса-лебедь 2: Тайна замка / The Swan Princess and the Secret of the Castle (1997) DVDRip-AVC от Тorrent-Хzona, перейдите по ссылке - там вы найдете решение своей проблемы.

Категория: Мультипликация

 

Скачать Принцесса-лебедь 2: Тайна замка / The Swan Princess and the Secret of the Castle (1997) DVDRip-AVC от Тorrent-Хzona бесплатно без регистрации

 

Информация
Посетители, находящиеся в группе Гости, не могут оставлять комментарии к данной публикации.
 
 
Скачать Принцесса-лебедь 2: Тайна замка / The Swan Princess and the Secret of the Castle (1997) DVDRip-AVC от Тorrent-Хzona бесплатно без регистрацииCopyright © 2019 .