Скачать Придурки из Хаззарда / The Dukes of Hazzard (2005) WEB-DL 1080p | D, P | UNRATED бесплатно без регистрации








Информация о фильме
Год выхода: 2005
Выпущено: США, Австралия
Качество: WEB-DL 1080p
О фильме:
Действие сюжета разворачивается в наши дни и закручено вокруг приключений закадычных двоюродных братьев Бо и Люка Дьюков, которым благодаря своей неотразимой кузине Дэйзи и контрабандисту-самогонщику дяде Джессу удается спасти семейную ферму от полного уничтожения коррумпированным комиссаром округа Хаззард Боссом Хоггом.

Вступив в противоборство с местными властями, герои постоянно от них ускользают самыми замысловатыми способами, гоняя по округу на своем знаменитом оранжевом «додже» 1969 года выпуска, получившем прозвище «Генерал Ли»…



В ролях: Джонни Ноксвил, Шонн Уильям Скотт, Джессика Симпсон, Берт Рейнолдс, М. К. Гейни, Уилли Нельсон, Джеймс Родэй, Дэвид Кокнер, Майкл Руф, Майкл Уэстон

Режиссер: Джей Чандрашекхар
Видео: MPEG-4 AVC, ~4807 Кбит/с, 1920x816, 29.970 FPS
Оригинальное название: The Dukes of Hazzard
Перевод: Дублированный + Профессиональный (многоголосый, закадровый)
Субтитры: Английские

Формат: MKV
Аудио #3: 48 kHz, AC3 Dolby Digital, 3/2 (L,C,R,l,r) + LFE ch, ~384 kbps (ENG)



M/IGeneral
Unique ID : 215977641848856493959895941091255492375 (0xA27BC7E0E6F78A0D95FBDA31D5B19F17)
Complete name : F:КиношкаThe.Dukes.of.Hazzard.2005.1080p.WEB-DL.DD5.1.H.264.mkv
Format : Matroska
Format version : Version 4
File size : 4.59 GiB
Duration : 1 h 46 min
Overall bit rate : 6 145 kb/s
Movie name : The.Dukes.of.Hazzard.2005.1080p.WEB-DL.DD5.1.H.264-FGT
Encoded date : UTC 2018-03-13 19:57:45
Writing application : mkvmerge v18.0.0 ('Apricity') 64-bit
Writing library : libebml v1.3.5 + libmatroska v1.4.8

Video
ID : 1
Format : AVC
Format/Info : Advanced Video Codec
Format profile : High@L4
Format settings : CABAC / 4 Ref Frames
Format settings, CABAC : Yes
Format settings, ReFrames : 4 frames
Codec ID : V_MPEG4/ISO/AVC
Duration : 1 h 46 min
Bit rate : 4 807 kb/s
Width : 1 920 pixels
Height : 816 pixels
Display aspect ratio : 2.35:1
Frame rate mode : Constant
Frame rate : 29.970 (30000/1001) FPS
Color space : YUV
Chroma subsampling : 4:2:0
Bit depth : 8 bits
Scan type : Progressive
Bits/(Pixel*Frame) : 0.102
Stream size : 3.59 GiB (78%)
Title : The.Dukes.of.Hazzard.2005.1080p.WEB-DL.DD5.1.H.264-FGT
Default : Yes
Forced : No
Color range : Limited
Color primaries : BT.709
Transfer characteristics : BT.709
Matrix coefficients : BT.709

Audio #1
ID : 2
Format : AC-3
Format/Info : Audio Coding 3
Commercial name : Dolby Digital
Codec ID : A_AC3
Duration : 1 h 46 min
Bit rate mode : Constant
Bit rate : 384 kb/s
Channel(s) : 6 channels
Channel layout : L R C LFE Ls Rs
Sampling rate : 48.0 kHz
Frame rate : 31.250 FPS (1536 SPF)
Bit depth : 16 bits
Compression mode : Lossy
Stream size : 294 MiB (6%)
Title : DUB
Language : Russian
Service kind : Complete Main
Default : Yes
Forced : No

Audio #2
ID : 3
Format : AC-3
Format/Info : Audio Coding 3
Commercial name : Dolby Digital
Codec ID : A_AC3
Duration : 1 h 46 min
Bit rate mode : Constant
Bit rate : 448 kb/s
Channel(s) : 6 channels
Channel layout : L R C LFE Ls Rs
Sampling rate : 48.0 kHz
Frame rate : 31.250 FPS (1536 SPF)
Bit depth : 16 bits
Compression mode : Lossy
Stream size : 343 MiB (7%)
Title : MVO
Language : Russian
Service kind : Complete Main
Default : No
Forced : No

Audio #3
ID : 4
Format : AC-3
Format/Info : Audio Coding 3
Commercial name : Dolby Digital
Codec ID : A_AC3
Duration : 1 h 46 min
Bit rate mode : Constant
Bit rate : 384 kb/s
Channel(s) : 6 channels
Channel layout : L R C LFE Ls Rs
Sampling rate : 48.0 kHz
Frame rate : 31.250 FPS (1536 SPF)
Bit depth : 16 bits
Compression mode : Lossy
Stream size : 294 MiB (6%)
Title : The.Dukes.of.Hazzard.2005.1080p.WEB-DL.DD5.1.H.264-FGT
Language : English
Service kind : Complete Main
Default : No
Forced : No

Text
ID : 5
Format : UTF-8
Codec ID : S_TEXT/UTF8
Codec ID/Info : UTF-8 Plain Text
Language : English
Default : No
Forced : No

Menu
00:00:00.000 : en:Upstairs Delivery
00:04:55.833 : en:Chasing Credits
00:09:14.166 : en:Nobody Bothers Daisy
00:13:29.833 : en:Duking It Out
00:17:27.833 : en:Cosmetic Damage
00:20:22.500 : en:Hogg-Tied
00:23:55.166 : en:Safe Transport
00:28:37.166 : en:Pole Vault
00:32:19.833 : en:Grab Me an Armadillo
00:35:53.500 : en:Blowing Things Up
00:38:40.500 : en:Rescuing General Lee
00:41:54.333 : en:They're Nice Up Here
00:43:22.166 : en:Daisy Undercover
00:46:54.833 : en:Sorority Girls
00:50:37.000 : en:It Ain't Over Yer
00:52:07.333 : en:Campus Police
00:54:27.666 : en:Lab Specimens
00:58:17.333 : en:Sleight of Hand
01:02:47.333 : en:Checking Her Undercarriage
01:06:08.833 : en:Say You're Sorry
01:11:02.000 : en:Daisy Uncovered
01:14:32.166 : en:So Many Pigs
01:19:16.000 : en:Barnstormers
01:23:04.833 : en:Surprise Entry
01:26:47.333 : en:Joking and Smoking
01:30:56.000 : en:Finish Line
01:34:41.500 : en:Shooting the Moon
01:37:02.166 : en:Gubernatorial Pardons
01:39:56.166 : en:Feels Like Old Times
01:41:39.166 : en:Outtakes and End CreditsСкриншоты ЗалилНазвание: Придурки из Хаззарда
Жанр: боевик, комедия, приключения
-=DoMiNo=- ОценкаНикто ещё не поставил оценку КатегорияЗарубежные фильмы Раздают10 Качают0 Сидер замечен12-07-2019 21:19:14 (4 минуты назад) Добавлен14-09-2018 21:04:45 (10 месяцев назад) Размер4.59 GB (4929111218 Bytes)Аудио #2: 48 kHz, AC3 Dolby Digital, 3/2 (L,C,R,l,r) + LFE ch, ~448 kbps (RUS) MVO
Продолжительность: 01:46:56
Аудио #1: 48 kHz, AC3 Dolby Digital, 3/2 (L,C,R,l,r) + LFE ch, ~384 kbps (RUS) DUB

Если у вас возникли проблемы с закачкой Придурки из Хаззарда / The Dukes of Hazzard (2005) WEB-DL 1080p | D, P | UNRATED, перейдите по ссылке - там вы найдете решение своей проблемы.

Категория: Зарубежные фильмы

 

Скачать Придурки из Хаззарда / The Dukes of Hazzard (2005) WEB-DL 1080p | D, P | UNRATED бесплатно без регистрации

 

Информация
Посетители, находящиеся в группе Гости, не могут оставлять комментарии к данной публикации.
 
 
Скачать Придурки из Хаззарда / The Dukes of Hazzard (2005) WEB-DL 1080p | D, P | UNRATED бесплатно без регистрацииCopyright © 2019 .