Скачать VA - Jazz and Blues on Edison vol. 1 (2006) FLAC бесплатно без регистрации






Год: 2006
Исполнитель: VA
Формат/Кодек: FLAC
Дополнительная информация: Записи 1920-х годов.
Лог создания рипа
Exact Audio Copy V1.0 beta 2 from 29. April 2011

EAC extraction logfile from 5. May 2012, 16:32

Various Artists / Jazz and Blues on Edison vol. 1

Used drive : TSSTcorpCDDVDW SH-S222L Adapter: 0 ID: 0

Read mode : Secure
Utilize accurate stream : Yes
Defeat audio cache : Yes
Make use of C2 pointers : No

Read offset correction : 6
Overread into Lead-In and Lead-Out : No
Fill up missing offset samples with silence : Yes
Delete leading and trailing silent blocks : No
Null samples used in CRC calculations : Yes
Used interface : Native Win32 interface for Win NT & 2000
Gap handling : Appended to previous track

Used output format : User Defined Encoder
Selected bitrate : 768 kBit/s
Quality : High
Add ID3 tag : No
Command line compressor : C:Program FilesExact Audio CopyFLACFLAC.EXE
Additional command line options : -6 -V -T "ARTIST=%artist%" -T "TITLE=%title%" -T "ALBUM=%albumtitle%" -T "DATE=%year%" -T "TRACKNUMBER=%tracknr%" -T "GENRE=%genre%" -T "COMMENT=%comment%" -T "BAND=%albuminterpret%" -T "COMPOSER=%composer%" %haslyrics%--ta

TOC of the extracted CD

Track | Start | Length | Start sector | End sector
---------------------------------------------------------
1 | 0:00.00 | 4:11.71 | 0 | 18895
2 | 4:11.71 | 3:45.42 | 18896 | 35812
3 | 7:57.38 | 4:43.00 | 35813 | 57037
4 | 12:40.38 | 4:01.33 | 57038 | 75145
5 | 16:41.71 | 4:11.14 | 75146 | 93984
6 | 20:53.10 | 3:37.05 | 93985 | 110264
7 | 24:30.15 | 4:32.08 | 110265 | 130672
8 | 29:02.23 | 3:44.64 | 130673 | 147536
9 | 32:47.12 | 4:12.45 | 147537 | 166481
10 | 36:59.57 | 4:02.14 | 166482 | 184645
11 | 41:01.71 | 3:59.25 | 184646 | 202595
12 | 45:01.21 | 4:29.00 | 202596 | 222770
13 | 49:30.21 | 3:04.18 | 222771 | 236588
14 | 52:34.39 | 3:53.59 | 236589 | 254122
15 | 56:28.23 | 4:14.44 | 254123 | 273216
16 | 60:42.67 | 4:18.71 | 273217 | 292637
17 | 65:01.63 | 3:08.57 | 292638 | 306794
18 | 68:10.45 | 3:03.19 | 306795 | 320538

Track 1

Filename E:CLASSICAL14.postJazz and Blues on EdisonNieuwe map�1. Various Artists - Dixie Land.wav

Pre-gap length 0:00:02.00

Peak level 99.9 %
Extraction speed 4.4 X
Track quality 100.0 %
Test CRC 81A8893B
Copy CRC 81A8893B
Track not present in AccurateRip database
Copy OK

Track 2

Filename E:CLASSICAL14.postJazz and Blues on EdisonNieuwe map�2. Various Artists - Baby's Got The Blues.wav

Peak level 99.8 %
Extraction speed 4.8 X
Track quality 100.0 %
Test CRC 23D31CF8
Copy CRC 23D31CF8
Track not present in AccurateRip database
Copy OK

Track 3

Filename E:CLASSICAL14.postJazz and Blues on EdisonNieuwe map�3. Various Artists - St. Louis Gal.wav

Peak level 99.9 %
Extraction speed 5.3 X
Track quality 100.0 %
Test CRC 11FE833C
Copy CRC 11FE833C
Track not present in AccurateRip database
Copy OK

Track 4

Filename E:CLASSICAL14.postJazz and Blues on EdisonNieuwe map�4. Various Artists - You Gonna Wake Up Some Morning.wav

Peak level 100.0 %
Extraction speed 5.6 X
Track quality 100.0 %
Test CRC 8697E453
Copy CRC 8697E453
Track not present in AccurateRip database
Copy OK

Track 5

Filename E:CLASSICAL14.postJazz and Blues on EdisonNieuwe map�5. Various Artists - Hot Tamale Baby.wav

Peak level 100.0 %
Extraction speed 5.9 X
Track quality 100.0 %
Test CRC 23E660A6
Copy CRC 23E660A6
Track not present in AccurateRip database
Copy OK

Track 6

Filename E:CLASSICAL14.postJazz and Blues on EdisonNieuwe map�6. Various Artists - Hard Hearted Hannah.wav

Peak level 99.9 %
Extraction speed 6.2 X
Track quality 100.0 %
Test CRC 02B1ED19
Copy CRC 02B1ED19
Track not present in AccurateRip database
Copy OK

Track 7

Filename E:CLASSICAL14.postJazz and Blues on EdisonNieuwe map�7. Various Artists - Temperamental Papa.wav

Peak level 99.9 %
Extraction speed 6.7 X
Track quality 100.0 %
Test CRC 68E4F84A
Copy CRC 68E4F84A
Track not present in AccurateRip database
Copy OK

Track 8

Filename E:CLASSICAL14.postJazz and Blues on EdisonNieuwe map�8. Various Artists - It Makes No Difference Now.wav

Peak level 99.9 %
Extraction speed 6.8 X
Track quality 100.0 %
Test CRC 58E43464
Copy CRC 58E43464
Track not present in AccurateRip database
Copy OK

Track 9

Filename E:CLASSICAL14.postJazz and Blues on EdisonNieuwe map�9. Various Artists - Undertaker's Blues.wav

Peak level 99.7 %
Extraction speed 7.1 X
Track quality 100.0 %
Test CRC 61A57D2E
Copy CRC 61A57D2E
Track not present in AccurateRip database
Copy OK

Track 10

Filename E:CLASSICAL14.postJazz and Blues on EdisonNieuwe map10. Various Artists - Memphis Bound.wav

Peak level 100.0 %
Extraction speed 7.0 X
Track quality 100.0 %
Test CRC B35E46CD
Copy CRC B35E46CD
Track not present in AccurateRip database
Copy OK

Track 11

Filename E:CLASSICAL14.postJazz and Blues on EdisonNieuwe map11. Various Artists - Don't Advertise Your Man.wav

Peak level 99.9 %
Extraction speed 7.2 X
Track quality 100.0 %
Test CRC DFE17649
Copy CRC DFE17649
Track not present in AccurateRip database
Copy OK

Track 12

Filename E:CLASSICAL14.postJazz and Blues on EdisonNieuwe map12. Various Artists - Broken Busted Blues.wav

Peak level 99.9 %
Extraction speed 7.8 X
Track quality 100.0 %
Test CRC FAAA8E80
Copy CRC FAAA8E80
Track not present in AccurateRip database
Copy OK

Track 13

Filename E:CLASSICAL14.postJazz and Blues on EdisonNieuwe map13. Various Artists - Loud Speakin' Papa.wav

Peak level 99.8 %
Extraction speed 6.0 X
Track quality 99.9 %
Test CRC 63AE8B2B
Copy CRC 63AE8B2B
Track not present in AccurateRip database
Copy OK

Track 14

Filename E:CLASSICAL14.postJazz and Blues on EdisonNieuwe map14. Various Artists - Everybody Stomp.wav

Peak level 99.9 %
Extraction speed 8.2 X
Track quality 100.0 %
Test CRC EEEEB87E
Copy CRC EEEEB87E
Track not present in AccurateRip database
Copy OK

Track 15

Filename E:CLASSICAL14.postJazz and Blues on EdisonNieuwe map15. Various Artists - I've Found A New Baby.wav

Peak level 100.0 %
Extraction speed 8.5 X
Track quality 100.0 %
Test CRC 5E5AE809
Copy CRC 5E5AE809
Track not present in AccurateRip database
Copy OK

Track 16

Filename E:CLASSICAL14.postJazz and Blues on EdisonNieuwe map16. Various Artists - Since My Best Girl Turned Me Down.wav

Peak level 99.9 %
Extraction speed 7.2 X
Track quality 99.9 %
Test CRC 9EEDDD63
Copy CRC 9EEDDD63
Track not present in AccurateRip database
Copy OK

Track 17

Filename E:CLASSICAL14.postJazz and Blues on EdisonNieuwe map17. Various Artists - Come On Home.wav

Peak level 99.7 %
Extraction speed 8.4 X
Track quality 100.0 %
Test CRC C11616BD
Copy CRC C11616BD
Track not present in AccurateRip database
Copy OK

Track 18

Filename E:CLASSICAL14.postJazz and Blues on EdisonNieuwe map18. Various Artists - Wang Wang Blues.wav

Peak level 99.6 %
Extraction speed 6.3 X
Track quality 99.9 %
Test CRC C5971E50
Copy CRC C5971E50
Track not present in AccurateRip database
Copy OK

None of the tracks are present in the AccurateRip database

No errors occurred

End of status report

==== Log checksum 245E5D6B6E754443A244F1787501EDD3302A9947337CC2DC86355A583C90978B ====
Содержание индексной карты (.CUE)
REM GENRE "jazz and blues"
REM DISCID FA10B112
REM COMMENT "ExactAudioCopy v1.0b2"
PERFORMER "Various Artists"
TITLE "Jazz and Blues on Edison vol. 1"
FILE "01. Various Artists - Dixie Land.wav" WAVE
TRACK 01 AUDIO
TITLE "Dixie Land"
PERFORMER "Various Artists"
FLAGS DCP
INDEX 01 00:00:00
FILE "02. Various Artists - Baby's Got The Blues.wav" WAVE
TRACK 02 AUDIO
TITLE "Baby's Got The Blues"
PERFORMER "Various Artists"
FLAGS DCP
INDEX 01 00:00:00
FILE "03. Various Artists - St. Louis Gal.wav" WAVE
TRACK 03 AUDIO
TITLE "St. Louis Gal"
PERFORMER "Various Artists"
FLAGS DCP
INDEX 01 00:00:00
FILE "04. Various Artists - You Gonna Wake Up Some Morning.wav" WAVE
TRACK 04 AUDIO
TITLE "You Gonna Wake Up Some Morning"
PERFORMER "Various Artists"
FLAGS DCP
INDEX 01 00:00:00
FILE "05. Various Artists - Hot Tamale Baby.wav" WAVE
TRACK 05 AUDIO
TITLE "Hot Tamale Baby"
PERFORMER "Various Artists"
FLAGS DCP
INDEX 01 00:00:00
FILE "06. Various Artists - Hard Hearted Hannah.wav" WAVE
TRACK 06 AUDIO
TITLE "Hard Hearted Hannah"
PERFORMER "Various Artists"
FLAGS DCP
INDEX 01 00:00:00
FILE "07. Various Artists - Temperamental Papa.wav" WAVE
TRACK 07 AUDIO
TITLE "Temperamental Papa"
PERFORMER "Various Artists"
FLAGS DCP
INDEX 01 00:00:00
FILE "08. Various Artists - It Makes No Difference Now.wav" WAVE
TRACK 08 AUDIO
TITLE "It Makes No Difference Now"
PERFORMER "Various Artists"
FLAGS DCP
INDEX 01 00:00:00
FILE "09. Various Artists - Undertaker's Blues.wav" WAVE
TRACK 09 AUDIO
TITLE "Undertaker's Blues"
PERFORMER "Various Artists"
FLAGS DCP
INDEX 01 00:00:00
FILE "10. Various Artists - Memphis Bound.wav" WAVE
TRACK 10 AUDIO
TITLE "Memphis Bound"
PERFORMER "Various Artists"
FLAGS DCP
INDEX 01 00:00:00
FILE "11. Various Artists - Don't Advertise Your Man.wav" WAVE
TRACK 11 AUDIO
TITLE "Don't Advertise Your Man"
PERFORMER "Various Artists"
FLAGS DCP
INDEX 01 00:00:00
FILE "12. Various Artists - Broken Busted Blues.wav" WAVE
TRACK 12 AUDIO
TITLE "Broken Busted Blues"
PERFORMER "Various Artists"
FLAGS DCP
INDEX 01 00:00:00
FILE "13. Various Artists - Loud Speakin' Papa.wav" WAVE
TRACK 13 AUDIO
TITLE "Loud Speakin' Papa"
PERFORMER "Various Artists"
FLAGS DCP
INDEX 01 00:00:00
FILE "14. Various Artists - Everybody Stomp.wav" WAVE
TRACK 14 AUDIO
TITLE "Everybody Stomp"
PERFORMER "Various Artists"
FLAGS DCP
INDEX 01 00:00:00
FILE "15. Various Artists - I've Found A New Baby.wav" WAVE
TRACK 15 AUDIO
TITLE "I've Found A New Baby"
PERFORMER "Various Artists"
FLAGS DCP
INDEX 01 00:00:00
FILE "16. Various Artists - Since My Best Girl Turned Me Down.wav" WAVE
TRACK 16 AUDIO
TITLE "Since My Best Girl Turned Me Down"
PERFORMER "Various Artists"
FLAGS DCP
INDEX 01 00:00:00
FILE "17. Various Artists - Come On Home.wav" WAVE
TRACK 17 AUDIO
TITLE "Come On Home"
PERFORMER "Various Artists"
FLAGS DCP
INDEX 01 00:00:00
FILE "18. Various Artists - Wang Wang Blues.wav" WAVE
TRACK 18 AUDIO
TITLE "Wang Wang Blues"
PERFORMER "Various Artists"
FLAGS DCP
INDEX 01 00:00:00 ЗалилПродолжительность: 01:11:13
Битрейт аудио: Lossless


Трек-лист
01. Dixie Land [04:11]
02. Baby's Got The Blues [03:45]
03. St. Louis Gal [04:43]
04. You Gonna Wake Up Some Morning [04:01]
05. Hot Tamale Baby [04:11]
06. Hard Hearted Hannah [03:37]
07. Temperamental Papa [04:32]
08. It Makes No Difference Now [03:44]
09. Undertaker's Blues [04:12]
10. Memphis Bound [04:02]
11. Don't Advertise Your Man [03:59]
12. Broken Busted Blues [04:29]
13. Loud Speakin' Papa [03:04]
14. Everybody Stomp [03:53]
15. I've Found A New Baby [04:14]
16. Since My Best Girl Turned Me Down [04:18]
17. Come On Home [03:08]
18. Wang Wang Blues [03:03]


Жанр: Ragtime, Dixieland, New Orleans Brass Bands, Jazz Blues

kaylas1 ОценкаНикто ещё не поставил оценку КатегорияМузыка Раздают0 Качают0 Сидер замечен25-05-2019 15:19:13 (2 месяца назад) Добавлен13-04-2017 15:46:09 (27 месяцев назад) Размер160.56 MB (168354322 Bytes)Название: Jazz and Blues on Edison vol. 1

Если у вас возникли проблемы с закачкой VA - Jazz and Blues on Edison vol. 1 (2006) FLAC, перейдите по ссылке - там вы найдете решение своей проблемы.

Категория: Музыка

 

Скачать VA - Jazz and Blues on Edison vol. 1 (2006) FLAC бесплатно без регистрации

 

Информация
Посетители, находящиеся в группе Гости, не могут оставлять комментарии к данной публикации.
 
 
Скачать VA - Jazz and Blues on Edison vol. 1 (2006) FLAC бесплатно без регистрацииCopyright © 2019 .