Скачать Биатлон. Кубок мира 2019. Осло-Хольменколлен (Норвегия). 9-й этап. Женщины. Масс-старт 12,5 км [24.03] (2019) HDTV 1080i бесплатно без регистрации




Аудио кодек: MP2
Качество: HDTV
Видео: MPEG4 Video (H264) 1920x1080 (16:9) 25fps 8200kbps
Формат: TS
Комментарий: Профессиональный
Автор рипа: Настольный теннисист

Результаты[/size]


MediaInfo
General
ID : 1 (0x1)
Complete name : Y:торрентБиатлон. Кубок мира 2018-2019. Осло. Женщины. Масс-старт 12,5 км.ts
Format : MPEG-TS
File size : 2.80 GiB
Duration : 44 min 11 s
Overall bit rate mode : Variable
Overall bit rate : 9 084 kb/s

Video
ID : 204 (0xCC)
Menu ID : 2204 (0x89C)
Format : AVC
Format/Info : Advanced Video Codec
Format profile : High@L4
Format settings : CABAC / 4 Ref Frames
Format settings, CABAC : Yes
Format settings, RefFrames : 4 frames
Codec ID : 27
Duration : 44 min 11 s
Bit rate : 8 248 kb/s
Width : 1 920 pixels
Height : 1 080 pixels
Display aspect ratio : 16:9
Frame rate : 25.000 FPS
Standard : Component
Color space : YUV
Chroma subsampling : 4:2:0
Bit depth : 8 bits
Scan type : Interlaced
Scan type, store method : Separated fields
Scan order : Top Field First
Bits/(Pixel*Frame) : 0.159
Stream size : 2.55 GiB (91%)
Color range : Limited
Color primaries : BT.709
Transfer characteristics : BT.709
Matrix coefficients : BT.709

Audio #1
ID : 304 (0x130)
Menu ID : 2204 (0x89C)
Format : MPEG Audio
Format version : Version 1
Format profile : Layer 2
Codec ID : 3
Duration : 44 min 11 s
Bit rate mode : Constant
Bit rate : 192 kb/s
Channel(s) : 2 channels
Sampling rate : 48.0 kHz
Frame rate : 41.667 FPS (1152 SPF)
Compression mode : Lossy
Delay relative to video : -80 ms
Stream size : 60.7 MiB (2%)
Language : Russian

Audio #2
ID : 305 (0x131)
Menu ID : 2204 (0x89C)
Format : MPEG Audio
Format version : Version 1
Format profile : Layer 2
Codec ID : 3
Duration : 44 min 11 s
Bit rate mode : Constant
Bit rate : 192 kb/s
Channel(s) : 2 channels
Sampling rate : 48.0 kHz
Frame rate : 41.667 FPS (1152 SPF)
Compression mode : Lossy
Delay relative to video : -80 ms
Stream size : 60.7 MiB (2%)
ОценкаНикто ещё не поставил оценку КатегорияСпорт и Здоровье Раздают0 Качают0 Сидер замечен06-05-2019 13:19:06 (2 месяца назад) Добавлен24-03-2019 20:12:04 (4 месяца назад) Размер2.80 GB (3010985628 Bytes)Вид спорта: Биатлон
Видео кодек: AVC
Описание: Кубок мира 2018-19. 9-й этап. Осло-Хольменколлен (Норвегия). Женщины. Масс-старт 12,5 км.

Аудио: MPEG Audio 48000Hz stereo 192kbps

Скриншоты



Продолжительность
00:44:11


Результаты
[size=16]Язык комментариев: Русский (Губерниев) / Интершум

Кубок мира 2018-19. 9-й этап. Осло-Хольменколлен (Норвегия)
Женщины. Масс-старт 12,5 км




Если у вас возникли проблемы с закачкой Биатлон. Кубок мира 2019. Осло-Хольменколлен (Норвегия). 9-й этап. Женщины. Масс-старт 12,5 км [24.03] (2019) HDTV 1080i, перейдите по ссылке - там вы найдете решение своей проблемы.

Категория: Спорт и Здоровье

 

Скачать Биатлон. Кубок мира 2019. Осло-Хольменколлен (Норвегия). 9-й этап. Женщины. Масс-старт 12,5 км [24.03] (2019) HDTV 1080i бесплатно без регистрации

 

Информация
Посетители, находящиеся в группе Гости, не могут оставлять комментарии к данной публикации.
 
 
Скачать Биатлон. Кубок мира 2019. Осло-Хольменколлен (Норвегия). 9-й этап. Женщины. Масс-старт 12,5 км [24.03] (2019) HDTV 1080i бесплатно без регистрацииCopyright © 2019 .