Скачать BBC: Марк Цукерберг. Фейсбук изнутри / Mark Zuckerberg. Inside Facebook (2011) SATRip | P2 бесплатно без регистрации





Информация о фильме
Описание:
Год выпуска: 2011
Режиссер:Всего за семь лет Марк Цукерберг превратился из студента колледжа в мультимиллиардера. Марк Цукерберг - ведущий предприниматель, входящий в десятку самых успешных предпринимателей в истории. Детище Цукерберга - Facebook - проник в личную жизнь 800 миллионов людей. Когда в основу того, чем мы являемся помещается технология, мир меняется. Иногда появляются организации, определяющие целую эпоху, они делают что-то новое и масштабное. В данном случае это изменение способов общения сотен миллионов людей. Возможности Facebook феноменальны, но его проблема в том, что он слишком популярен. В процессе своего развития детище Цукерберга стало причиной судебных исков - обвинение о вторжении в личную жизнь.



Тех. данные

Качество: SATRip
Жанр: Документальный, технологии, интернет, бизнес
Перевод: Профессиональный двухголосый

Название: BBC: Марк Цукерберг. Фейсбук изнутри / Mark Zuckerberg. Inside Facebook
Выпущено: ,
Чарльз Миллер


Формат: AVI
Аудио: MP3, 2.0ch., 128 kb/sMI:
Формат : AVI
Формат/Информация : Audio Video Interleave
Размер файла : 438 Мбайт
Продолжительность : 48 м.
Общий поток : 1274 Кбит/сек
Программа кодирования : VirtualDubMod 1.5.10.3 | www.virtualdub-fr.org || (build 2550/release)
Библиотека кодирования : VirtualDubMod build 2550/release

Видео
Идентификатор : 0
Формат : MPEG-4 Visual
Профиль формата : Advanced Simple@L5
Параметр BVOP формата : 2
Параметр QPel формата : Нет
Параметр GMC формата : Без точки перехода
Параметр матрицы формата : Выборочная
Идентификатор кодека : XVID
Идентификатор кодека/Подсказка : XviD
Продолжительность : 48 м.
Битрейт : 1136 Кбит/сек
Ширина : 704 пикселя
Высота : 400 пикселей
Соотношение сторон : 16:9
Частота кадров : 25,000 кадров/сек
Цветовое пространство : YUV
Субдискретизация насыщенности : 4:2:0
Битовая глубина : 8 бит
Тип развёртки : Прогрессивная
Метод сжатия : С потерями
Бит/(Пиксели*Кадры) : 0.161
Размер потока : 391 Мбайт (89%)
Библиотека кодирования : XviD 73

Аудио
Идентификатор : 1
Формат : MPEG Audio
Версия формата : Version 1
Профиль формата : Layer 3
Идентификатор кодека : 55
Идентификатор кодека/Подсказка : MP3
Продолжительность : 48 м.
Вид битрейта : Постоянный
Битрейт : 128 Кбит/сек
Каналы : 2 канала
Частота : 48,0 КГц
Метод сжатия : С потерями
Размер потока : 44,1 Мбайт (10%)
Выравнивание : Соединение по промежуткам
Продолжительность промежутка : 40 мс. (1,00 видеокадр)
Время предзагрузки промежутка : 504 мс.
Библиотека кодирования : LAME3.99r
Настройки программы : -m s -V 4 -q 0 -lowpass 17 -b 128Скриншоты

ОценкаНикто ещё не поставил оценку КатегорияНаучно-популярные фильмы Раздают0 Качают0 Сидер замечен12-07-2019 9:19:12 (1 час назад) Добавлен05-04-2014 15:37:28 (64 месяца назад) Размер438.39 MB (459683840 Bytes)Продолжительность: ~ 00:48:07
Видео: XviD, ~1136 kb/s, 704 x 400
Автор рипа: extrimus

Файл

Если у вас возникли проблемы с закачкой BBC: Марк Цукерберг. Фейсбук изнутри / Mark Zuckerberg. Inside Facebook (2011) SATRip | P2, перейдите по ссылке - там вы найдете решение своей проблемы.

Категория: Научно-популярные фильмы

 

Скачать BBC: Марк Цукерберг. Фейсбук изнутри / Mark Zuckerberg. Inside Facebook (2011) SATRip | P2 бесплатно без регистрации

 

Информация
Посетители, находящиеся в группе Гости, не могут оставлять комментарии к данной публикации.
 
 
Скачать BBC: Марк Цукерберг. Фейсбук изнутри / Mark Zuckerberg. Inside Facebook (2011) SATRip | P2 бесплатно без регистрацииCopyright © 2019 .