Скачать Суперполицейские 2 / Super Troopers 2 (2018) BDRip-AVC от OlLanDGroup | P | iTunes бесплатно без регистрации






TorpedoUK Оценка7.3 из 10 (3 голосов, самая низкая оценка - 5, самая высокая - 10) КатегорияЗарубежные фильмы Раздают0 Качают0 Сидер замечен11-07-2019 23:19:12 (10 часов назад) Добавлен10-08-2018 18:17:43 (11 месяц назад) Размер2.46 GB (2638448387 Bytes)Аудио #3: 48 kHz, AC3 Dolby Digital, 3/2 (L,C,R,l,r) + LFE ch, ~448.00 kbps avg | ENG

Режиссёр: Джей Чандрашекхар
Реклама: Отсутствует

Продолжительность: 01:39:30

Аудио кодек: AC3
[iTunes], Профессиональный (многоголосый, закадровый) |BDRemux | Super.Troopers.2.2018.1080p.BluRay.REMUX.AVC.DTS-HD.MA.5.1-FGT
Суперполицейские 2 / Super Troopers 2
«The time is meow»


Производство: Votiv Films, Broken Lizard Industries, Cataland Films
Формат: MKV
Rip by:



MediaInfo
Общее
Уникальный идентификатор : 48309807078029060803499231751265163633 (0x245821624832ABA93C2E6D83E3ED9971)
Полное имя : F:OlLanDGroupSuper.Troopers.2.2018.BDRip(AVC).OlLanDGroup.mkv
Формат : Matroska
Версия формата : Version 4 / Version 2
Размер файла : 2,46 Гбайт
Продолжительность : 1 ч. 39 м.
Общий поток : 3535 Кбит/сек
Название фильма : Super.Troopers.2.2018 #TorpedoUK#
Дата кодирования : UTC 2018-08-10 14:54:31
Программа кодирования : mkvmerge v25.0.0 ('Prog Noir') 64-bit
Библиотека кодирования : libebml v1.3.6 + libmatroska v1.4.9
Обложка : Yes
Attachments : small_cover.jpg / small_cover_land.jpg / cover.jpg / cover_land.jpg

Видео
Идентификатор : 1
Формат : AVC
Формат/Информация : Advanced Video Codec
Профиль формата : High@L4.1
Параметр CABAC формата : Да
Параметр ReFrames формата : 10 кадров
Идентификатор кодека : V_MPEG4/ISO/AVC
Продолжительность : 1 ч. 39 м.
Битрейт : 2508 Кбит/сек
Ширина : 1024 пикселя
Высота : 554 пикселя
Соотношение сторон : 1,85:1
Режим частоты кадров : Постоянный
Частота кадров : 23,976 (24000/1001) кадра/сек
Цветовое пространство : YUV
Субдискретизация насыщенности : 4:2:0
Битовая глубина : 8 бит
Тип развёртки : Прогрессивная
Бит/(Пиксели*Кадры) : 0.184
Размер потока : 1,74 Гбайт (71%)
Библиотека кодирования : x264 core 146 r2538 121396c
Настройки программы : cabac=1 / ref=10 / deblock=1:-3:-3 / analyse=0x3:0x113 / me=umh / subme=11 / psy=1 / psy_rd=0.99:0.05 / mixed_ref=1 / me_range=48 / chroma_me=1 / trellis=2 / 8x8dct=1 / cqm=0 / deadzone=21,11 / fast_pskip=1 / chroma_qp_offset=-3 / threads=6 / lookahead_threads=1 / sliced_threads=0 / nr=0 / decimate=1 / interlaced=0 / bluray_compat=0 / constrained_intra=0 / bframes=10 / b_pyramid=2 / b_adapt=2 / b_bias=0 / direct=3 / weightb=1 / open_gop=0 / weightp=2 / keyint=240 / keyint_min=23 / scenecut=40 / intra_refresh=0 / rc_lookahead=40 / rc=2pass / mbtree=1 / bitrate=2508 / ratetol=1.0 / qcomp=0.60 / qpmin=0 / qpmax=69 / qpstep=4 / cplxblur=20.0 / qblur=0.5 / vbv_maxrate=50000 / vbv_bufsize=62500 / nal_hrd=none / filler=0 / ip_ratio=1.40 / aq=1:1.00
Язык : English
Default : Да
Forced : Нет

Аудио #1
Идентификатор : 2
Формат : AC-3
Формат/Информация : Audio Coding 3
Расширение режима : CM (complete main)
Параметр Endianness формата : Big
Идентификатор кодека : A_AC3
Продолжительность : 1 ч. 39 м.
Вид битрейта : Постоянный
Битрейт : 384 Кбит/сек
Каналы : 6 каналов
Расположение каналов : Front: L C R, Side: L R, LFE
Частота : 48,0 КГц
Частота кадров : 31,250 кадров/сек (1536 spf)
Битовая глубина : 16 бит
Метод сжатия : С потерями
Размер потока : 273 Мбайт (11%)
Заголовок : iTunes
Язык : Russian
Default : Да
Forced : Нет

Аудио #2
Идентификатор : 3
Формат : AC-3
Формат/Информация : Audio Coding 3
Расширение режима : CM (complete main)
Параметр Endianness формата : Big
Идентификатор кодека : A_AC3
Продолжительность : 1 ч. 39 м.
Вид битрейта : Постоянный
Битрейт : 192 Кбит/сек
Каналы : 2 канала
Расположение каналов : Front: L R
Частота : 48,0 КГц
Частота кадров : 31,250 кадров/сек (1536 spf)
Битовая глубина : 16 бит
Метод сжатия : С потерями
Размер потока : 137 Мбайт (5%)
Заголовок : MVO [HDRezka Studio]
Язык : Russian
Default : Нет
Forced : Нет

Аудио #3
Идентификатор : 4
Формат : AC-3
Формат/Информация : Audio Coding 3
Расширение режима : CM (complete main)
Параметр Endianness формата : Big
Идентификатор кодека : A_AC3
Продолжительность : 1 ч. 39 м.
Вид битрейта : Постоянный
Битрейт : 448 Кбит/сек
Каналы : 6 каналов
Расположение каналов : Front: L C R, Side: L R, LFE
Частота : 48,0 КГц
Частота кадров : 31,250 кадров/сек (1536 spf)
Битовая глубина : 16 бит
Метод сжатия : С потерями
Размер потока : 319 Мбайт (13%)
Заголовок : Original
Язык : English
Default : Нет
Forced : Нет

Текст #1
Идентификатор : 5
Формат : UTF-8
Идентификатор кодека : S_TEXT/UTF8
Идентификатор кодека/Информация : UTF-8 Plain Text
Продолжительность : 1 ч. 38 м.
Битрейт : 119 бит/сек
Count of elements : 1801
Размер потока : 86,1 Кбайт (0%)
Заголовок : Full
Язык : Russian
Default : Нет
Forced : Нет

Текст #2
Идентификатор : 6
Формат : UTF-8
Идентификатор кодека : S_TEXT/UTF8
Идентификатор кодека/Информация : UTF-8 Plain Text
Продолжительность : 1 ч. 39 м.
Битрейт : 87 бит/сек
Count of elements : 2110
Размер потока : 64,0 Кбайт (0%)
Заголовок : Full
Язык : English
Default : Нет
Forced : Нет

Текст #3
Идентификатор : 7
Формат : UTF-8
Идентификатор кодека : S_TEXT/UTF8
Идентификатор кодека/Информация : UTF-8 Plain Text
Продолжительность : 1 ч. 39 м.
Битрейт : 108 бит/сек
Count of elements : 2544
Размер потока : 79,2 Кбайт (0%)
Заголовок : SDH
Язык : English
Default : Нет
Forced : Нет

Меню
00:00:00.000 : en:Chapter 01
00:05:15.398 : en:Chapter 02
00:09:08.756 : en:Chapter 03
00:12:43.012 : en:Chapter 04
00:16:12.972 : en:Chapter 05
00:22:11.955 : en:Chapter 06
00:26:35.552 : en:Chapter 07
00:29:48.620 : en:Chapter 08
00:33:19.956 : en:Chapter 09
00:36:33.608 : en:Chapter 10
00:40:04.527 : en:Chapter 11
00:43:10.879 : en:Chapter 12
00:46:35.209 : en:Chapter 13
00:51:43.141 : en:Chapter 14
00:55:46.801 : en:Chapter 15
01:01:09.207 : en:Chapter 16
01:04:57.018 : en:Chapter 17
01:07:07.064 : en:Chapter 18
01:11:33.247 : en:Chapter 19
01:14:53.530 : en:Chapter 20
01:17:32.522 : en:Chapter 21
01:22:55.136 : en:Chapter 22
01:26:08.621 : en:Chapter 23
01:28:43.901 : en:Chapter 24

Скриншоты


ЗалилСтрана: США
Перевод: Профессиональный (многоголосый, закадровый) |Год выпуска: 2018
Дата премьеры (мир): 19 апреля 2018
Видео кодек: MPEG-4 AVC
HDrezka Studio
В ролях: Шонн Уильям Скотт, Клифтон Коллинз мл., Стив Лемми, Эрик Столханске, Джей Чандрашекхар, Пол Сотер, Дэймон Уайанс мл., Кевин Хеффернан, Брайан Кокс, Мариса Кохлан

Описание: Фильм расскажет о безалаберных дорожных патрульных из маленького городка на границе США и Канады. Чтобы навести порядок на пограничной дороге и разрешить международный конфликт, пятёрка суперполицейских вынуждена сотрудничать со своими невыносимыми канадскими коллегами.



Субтитры: Русские (полные), Английские (полные, SDH)
Аудио #1: 48 kHz, AC3 Dolby Digital, 3/2 (L,C,R,l,r) + LFE ch, ~384.00 kbps avg | ENG
Качество: BDRip-AVC |Аудио #2: 48 kHz, AC3 Dolby Digital, 2 (L,R) ch, ~192.00 kbps avg | RUS (HDRezka)
Релиз от: Жанр: Комедия, криминал, детектив

Видео: 1024x554 (1.85:1), 23,976 fps, x264 ~2 508 kbps avg, 0.184 bit/pixel
Цифровой релиз: 3 августа 2018, «Двадцатый Век Фокс СНГ»


Если у вас возникли проблемы с закачкой Суперполицейские 2 / Super Troopers 2 (2018) BDRip-AVC от OlLanDGroup | P | iTunes, перейдите по ссылке - там вы найдете решение своей проблемы.

Категория: Зарубежные фильмы

 

Скачать Суперполицейские 2 / Super Troopers 2 (2018) BDRip-AVC от OlLanDGroup | P | iTunes бесплатно без регистрации

 

Информация
Посетители, находящиеся в группе Гости, не могут оставлять комментарии к данной публикации.
 
 
Скачать Суперполицейские 2 / Super Troopers 2 (2018) BDRip-AVC от OlLanDGroup | P | iTunes бесплатно без регистрацииCopyright © 2019 .