Скачать Сингулярность / Singularity (2017) BDRemux 1080p | iTunes бесплатно без регистрации






Информация о фильме
iTunes

Оригинальное название: Singularity
Релиз от: funtden ЗалилРежиссер: Роберт Коуба
Кодек: x264
Название: Сингулярность
Субтитры: Языки и типы субтитров
MIОбщее
Уникальный идентификатор : 244365044763052863155618588736140400571 (0xB7D6FEE6A8921848A6D03A8E9AA0D7BB)
Полное имя : G:Singularity.2017.BDREMUX 1080p.funtden.mkv
Формат : Matroska
Версия формата : Version 4 / Version 2
Размер файла : 16,3 Гбайт
Продолжительность : 1 ч. 32 м.
Режим общего битрейта : Переменный
Общий поток : 25,3 Мбит/сек
Название фильма : Singularity.2017.BDREMUX 1080p.funtden
Дата кодирования : UTC 2018-11-15 15:55:22
Программа кодирования : mkvmerge v28.2.0 ('The Awakening') 64-bit
Библиотека кодирования : libebml v1.3.6 + libmatroska v1.4.9
DURATION : 01:32:27.520000000
NUMBER_OF_FRAMES : 173360
NUMBER_OF_BYTES : 266280960
_STATISTICS_WRITING_APP : mkvmerge v28.2.0 ('The Awakening') 64-bit
_STATISTICS_WRITING_DATE_UTC : 2018-11-15 15:55:22
_STATISTICS_TAGS : BPS DURATION NUMBER_OF_FRAMES NUMBER_OF_BYTES
Attachment : Yes / Yes / Yes / Yes

Видео
Идентификатор : 1
Формат : AVC
Формат/Информация : Advanced Video Codec
Профиль формата : High@L4.1
Параметр CABAC формата : Да
Параметр ReFrames формата : 4 кадра
Идентификатор кодека : V_MPEG4/ISO/AVC
Продолжительность : 1 ч. 32 м.
Вид битрейта : Переменный
Битрейт : 22,9 Мбит/сек
Максимальный битрейт : 35,0 Мбит/сек
Ширина : 1920 пикселей
Высота : 1080 пикселей
Соотношение сторон : 16:9
Режим частоты кадров : Постоянный
Частота кадров : 23,976 кадра/сек
Стандарт вещания : NTSC
Цветовое пространство : YUV
Субдискретизация насыщенности : 4:2:0
Битовая глубина : 8 бит
Тип развёртки : Прогрессивная
Бит/(Пиксели*Кадры) : 0.460
Размер потока : 14,8 Гбайт (91%)
Заголовок : Singularity.2017.BDREMUX 1080p.funtden
Язык : English
Default : Нет
Forced : Нет
DURATION : 01:32:27.542000000
NUMBER_OF_FRAMES : 133008
NUMBER_OF_BYTES : 16212042557
_STATISTICS_WRITING_APP : mkvmerge v28.2.0 ('The Awakening') 64-bit
_STATISTICS_WRITING_DATE_UTC : 2018-11-15 15:55:22
_STATISTICS_TAGS : BPS DURATION NUMBER_OF_FRAMES NUMBER_OF_BYTES
Основные цвета : BT.709
Характеристики трансфера : BT.709
Коэффициенты матрицы : BT.709

Аудио #1
Идентификатор : 2
Формат : AC-3
Формат/Информация : Audio Coding 3
Расширение режима : CM (complete main)
Параметр Endianness формата : Big
Идентификатор кодека : A_AC3
Продолжительность : 1 ч. 32 м.
Вид битрейта : Постоянный
Битрейт : 384 Кбит/сек
Каналы : 6 каналов
Расположение каналов : Front: L C R, Side: L R, LFE
Частота : 48,0 КГц
Битовая глубина : 16 бит
Метод сжатия : С потерями
Размер потока : 254 Мбайт (2%)
Заголовок : Дублированный | iTunes
Язык : Russian
Default : Да
Forced : Да

Аудио #2
Идентификатор : 3
Формат : DTS
Формат/Информация : Digital Theater Systems
Режим : 16
Параметр Endianness формата : Big
Идентификатор кодека : A_DTS
Продолжительность : 1 ч. 32 м.
Вид битрейта : Постоянный
Битрейт : 1509 Кбит/сек
Каналы : 6 каналов
Расположение каналов : Front: L C R, Side: L R, LFE
Частота : 48,0 КГц
Битовая глубина : 24 бит
Метод сжатия : С потерями
Размер потока : 998 Мбайт (6%)
Заголовок : Original
Язык : English
Default : Нет
Forced : Нет
DURATION : 01:32:27.552000000
NUMBER_OF_FRAMES : 520083
NUMBER_OF_BYTES : 1046406996
_STATISTICS_WRITING_APP : mkvmerge v28.2.0 ('The Awakening') 64-bit
_STATISTICS_WRITING_DATE_UTC : 2018-11-15 15:55:22
_STATISTICS_TAGS : BPS DURATION NUMBER_OF_FRAMES NUMBER_OF_BYTES

Меню
00:00:00.000 : en:Chapter 00
00:00:05.005 : en:Chapter 01
00:05:13.021 : en:Chapter 02
00:11:45.788 : en:Chapter 03
00:17:44.730 : en:Chapter 04
00:23:47.676 : en:Chapter 05
00:29:50.205 : en:Chapter 06
00:35:13.736 : en:Chapter 07
00:41:27.151 : en:Chapter 08
00:46:51.558 : en:Chapter 09
00:52:23.515 : en:Chapter 10
00:58:20.497 : en:Chapter 11
01:04:27.113 : en:Chapter 12
01:10:09.246 : en:Chapter 13
01:15:12.841 : en:Chapter 14
01:21:04.484 : en:Chapter 15
01:27:29.619 : en:Chapter 16
Скриншоты

Год выхода: 2017
Видео: MPEG4 AVC, 22,9 Мбит/с, 1920x1080, 23,976 кадр/с
Студия: Calanda Pictures, Vantis Pictures, Voltage Pictures
Перевод: Дублированный |Страна: Швейцария, США
Аудио #2: Английский (DTS, 6 ch, 1509 Кбит/с)
Продолжительность: 01:32:27
В ролях: Джулиан Шаффнер, Джон Кьюсак, Кармен Ардженциано, Эйлин Грубба, Джаннин Вакер, Пол Америкэн, Павел Бубряк, Дэвид Крисман, Элиза Дворакова

Жанр: Фантастика
Аудио #1: Русский (AC3, 6 ch, 384 Кбит/с)
О фильме:
В 2020 году глава компании VA Industries, крупнейшей в области робототехники, представляет миру своё последнее изобретение — компьютер «Кронос», который должен положить конец войнам во всём мире. «Кронос» быстро понимает, что главная угроза миру на Земле — сами люди, и запускает программу по уничтожению человечества. 97 лет спустя небольшая группа выживших людей всё ещё скрывается от армии роботов. Подростки Эндрю и Калия объединяются в поисках нового мира, где, по слухам, люди живут, не опасаясь роботов.



funtden ОценкаНикто ещё не поставил оценку КатегорияЗарубежные фильмы Раздают1 Качают0 Сидер замечен12-07-2019 8:19:12 (4 минуты назад) Добавлен15-11-2018 20:26:45 (8 месяцев назад) Размер16.32 GB (17526943354 Bytes)Качество: BDRemux 1080p

Если у вас возникли проблемы с закачкой Сингулярность / Singularity (2017) BDRemux 1080p | iTunes, перейдите по ссылке - там вы найдете решение своей проблемы.

Категория: Зарубежные фильмы

 

Скачать Сингулярность / Singularity (2017) BDRemux 1080p | iTunes бесплатно без регистрации

 

Информация
Посетители, находящиеся в группе Гости, не могут оставлять комментарии к данной публикации.
 
 
Скачать Сингулярность / Singularity (2017) BDRemux 1080p | iTunes бесплатно без регистрацииCopyright © 2019 .