Скачать Сеть / The Net (1995) BDRip-AVC | D бесплатно без регистрации





Роли дублировали: Андрей Гриневич, Дмитрий Матвеев, Виктор Петров, Светлана Старикова, Владимир Конкин

Год выхода: 1995
Название: Сеть
О фильме:
Как и все мы, Анжела Беннет живет в век информации. Все аспекты ее существования переведены в цифры и занесены в различные компьютерные базы данных: личный идентификационный номер, номер банковского счета, номер страхового свидетельства, номер водительского удостоверения, сведения об отсутствии судимости. Работа Анжелы тоже связана с компьютерами - она программист. Существование Анжелы Беннет полностью компьютеризованно. Она не придает этому значения, но однажды ее личность стирают! Гуляя по компьютерной сети, Анжела случайно перебегает дорогу преторианцам. Преторианцами называют себя члены организованной группы хакеров, на счету которых взломы правительственных систем безопасности, биржевые крахи, авиакатастрофы и убийства, совершенные с использованием только одного оружия - всемирной сети интернет. Анжела становится следующей жертвой в списке хакеров.Они стирают ее личность и вписывают в биографию Анжелы новое имя и преступное прошлое. Согласно сфабрикованным данным, Анжела - опасная преступница, которая находится в розыске. Она должна найти в себе силы побороть злых компьютерных гениев.



Качество: BDRip 1080p
Продолжительность: 01:54:18
В ролях: Сандра Буллок, Джереми Нортэм, Дэннис Миллер, Дайан Бэйкер, Венди Газелль, Кен Ховард, Рэй МакКиннон, Дэниэл Шорр, Л. Скотт Колдуэлл, Роберт Госсетт
Формат: MKV
Видео: MPEG-4 AVC, 2340 kbps, 1088x592, 23,976 fps
Режиссер: Ирвин Уинклер
Аудио: AC3, 48000 Hz, 6 ch, 384 kb/s



M.IGeneral
Unique ID : 174735032825129432706216238806704103910 (0x8374BE42B12BF648B658194BA508A1E6)
Complete name : D:КИНОSet'.(1995).BDRip-AVC.[-=DoMiNo=-].mkv
Format : Matroska
Format version : Version 2
File size : 2.18 GiB
Duration : 1h 54mn
Overall bit rate : 2 725 Kbps
Encoded date : UTC 2014-02-11 22:48:26
Writing application : mkvmerge v5.8.0 ('No Sleep / Pillow') built on Sep 2 2012 15:37:04
Writing library : libebml v1.2.3 + libmatroska v1.3.0

Video
ID : 1
Format : AVC
Format/Info : Advanced Video Codec
Format profile : High@L4.1
Format settings, CABAC : Yes
Format settings, ReFrames : 12 frames
Codec ID : V_MPEG4/ISO/AVC
Duration : 1h 54mn
Bit rate : 2 340 Kbps
Width : 1 088 pixels
Height : 592 pixels
Display aspect ratio : 1.85:1
Frame rate mode : Constant
Frame rate : 23.976 fps
Color space : YUV
Chroma subsampling : 4:2:0
Bit depth : 8 bits
Scan type : Progressive
Bits/(Pixel*Frame) : 0.152
Stream size : 1.83 GiB (84%)
Writing library : x264 core 125 r2208 d9d2288
Encoding settings : cabac=1 / ref=12 / deblock=1:-1:-1 / analyse=0x3:0x113 / me=umh / subme=11 / psy=1 / psy_rd=1.00:0.20 / mixed_ref=1 / me_range=24 / chroma_me=1 / trellis=2 / 8x8dct=1 / cqm=0 / deadzone=21,11 / fast_pskip=0 / chroma_qp_offset=-6 / threads=6 / lookahead_threads=1 / sliced_threads=0 / slices=4 / nr=0 / decimate=0 / interlaced=0 / bluray_compat=0 / constrained_intra=0 / bframes=4 / b_pyramid=2 / b_adapt=2 / b_bias=0 / direct=3 / weightb=1 / open_gop=1 / weightp=2 / keyint=250 / keyint_min=23 / scenecut=40 / intra_refresh=0 / rc_lookahead=60 / rc=2pass / mbtree=1 / bitrate=2340 / ratetol=1.0 / qcomp=0.60 / qpmin=0 / qpmax=69 / qpstep=4 / cplxblur=20.0 / qblur=0.5 / vbv_maxrate=17500 / vbv_bufsize=14000 / nal_hrd=none / ip_ratio=1.40 / aq=1:1.50
Default : Yes
Forced : No

Audio
ID : 2
Format : AC-3
Format/Info : Audio Coding 3
Mode extension : CM (complete main)
Format settings, Endianness : Big
Codec ID : A_AC3
Duration : 1h 54mn
Bit rate mode : Constant
Bit rate : 384 Kbps
Channel(s) : 6 channels
Channel positions : Front: L C R, Side: L R, LFE
Sampling rate : 48.0 KHz
Bit depth : 16 bits
Compression mode : Lossy
Stream size : 314 MiB (14%)
Default : Yes
Forced : No

ЗалилПеревод: Дублированный

Выпущено: США, Columbia Pictures Corporation
Оригинальное название: The Net
Жанр: Боевик, триллер, драма, криминал, детектив
-=DoMiNo=- Оценка2 из 10 (1 голосов, самая низкая оценка - 2, самая высокая - 2) КатегорияЗарубежные фильмы Раздают0 Качают0 Сидер замечен11-07-2019 23:19:12 (9 часов назад) Добавлен12-02-2014 8:18:28 (66 месяцев назад) Размер2.18 GB (2336266138 Bytes)

Если у вас возникли проблемы с закачкой Сеть / The Net (1995) BDRip-AVC | D, перейдите по ссылке - там вы найдете решение своей проблемы.

Категория: Зарубежные фильмы

 

Скачать Сеть / The Net (1995) BDRip-AVC | D бесплатно без регистрации

 

Информация
Посетители, находящиеся в группе Гости, не могут оставлять комментарии к данной публикации.
 
 
Скачать Сеть / The Net (1995) BDRip-AVC | D бесплатно без регистрацииCopyright © 2019 .