Скачать В свободном улете / Random Acts of Flyness [S01] (2018) WEBRip 720p | GreenРай Studio бесплатно без регистрации






Информация о фильме
Оригинальное название: Random Acts of Flyness
Внимание, имеется видео и аудио реклама от спонсора показа

Скриншоты

Название: В свободном улете
О фильме: Абстрактное высказывание на тему современной американской медиасреды. Каждый эпизод шоу — взаимосвязанные истории, представляющие собой необычный микс из документальных нарезок, музыкальных выступлений, сюрреализма и анимации.



В ролях: Рейна-Саймон Мур, Натаниель Райан, Шэри Альберт, Теренс Нэнс, Мандела Беллами, Стивен Боно мл., Аллен Фоусет, Джамар Грин, Селия Хоттенштайн, Закари Ле Вей

Качество: WEBRip 720p
Страна: США, Home Box Office (HBO)
Режиссер: Теренс Нэнс, Мариама Диалло, Дариус Кларк Монро
Жанр: Комедия
Перевод: Любительский многоголосый (GreenРай Studio)
Год выпуска: 2018
Видео данные: MKV, 1280x720 (16:9), 23.976 fps, 4037 Кбит/с
Продолжительность: 6 x 00:32:00

МедиаинфоGeneral
Unique ID : 210891914343104831267099088692773867976 (0x9EA84E273D6A18EBAB4282BC1CB751C8)
Complete name : C:Random.Acts.of.Flyness.S01.WEB-DL.720pRandom.Acts.of.Flyness.S01E01.WEB-DL.720p.mkv
Format : Matroska
Format version : Version 2
File size : 1 004 MiB
Duration : 32 min 31 s
Overall bit rate : 4 315 kb/s
Encoded date : UTC 2018-09-08 12:26:40
Writing application : mkvmerge v7.8.0 ('River Man') 32bit built on Apr 3 2015 12:11:22
Writing library : libebml v1.3.1 + libmatroska v1.4.2

Video
ID : 1
Format : AVC
Format/Info : Advanced Video Codec
Format profile : High@L3.1
Format settings : CABAC / 4 Ref Frames
Format settings, CABAC : Yes
Format settings, RefFrames : 4 frames
Codec ID : V_MPEG4/ISO/AVC
Duration : 32 min 31 s
Bit rate : 4 037 kb/s
Width : 1 280 pixels
Height : 720 pixels
Display aspect ratio : 16:9
Frame rate mode : Constant
Frame rate : 23.976 FPS
Color space : YUV
Chroma subsampling : 4:2:0
Bit depth : 8 bits
Scan type : Progressive
Bits/(Pixel*Frame) : 0.183
Stream size : 939 MiB (94%)
Writing library : x264 core 146 r2538 121396c
Encoding settings : cabac=1 / ref=1 / deblock=1:0:0 / analyse=0x3:0x113 / me=hex / subme=2 / psy=1 / psy_rd=1.00:0.00 / mixed_ref=0 / me_range=16 / chroma_me=1 / trellis=0 / 8x8dct=1 / cqm=0 / deadzone=21,11 / fast_pskip=1 / chroma_qp_offset=0 / threads=12 / lookahead_threads=4 / sliced_threads=0 / nr=0 / decimate=1 / interlaced=0 / bluray_compat=0 / constrained_intra=0 / bframes=3 / b_pyramid=2 / b_adapt=1 / b_bias=0 / direct=1 / weightb=1 / open_gop=0 / weightp=1 / keyint=250 / keyint_min=23 / scenecut=40 / intra_refresh=0 / rc_lookahead=10 / rc=crf / mbtree=1 / crf=17.0 / qcomp=0.60 / qpmin=0 / qpmax=69 / qpstep=4 / vbv_maxrate=14000 / vbv_bufsize=14000 / crf_max=0.0 / nal_hrd=none / filler=0 / ip_ratio=1.40 / aq=1:1.00
Default : Yes
Forced : No

Audio
ID : 2
Format : AC-3
Format/Info : Audio Coding 3
Commercial name : Dolby Digital
Codec ID : A_AC3
Duration : 32 min 31 s
Bit rate mode : Constant
Bit rate : 192 kb/s
Channel(s) : 2 channels
Channel layout : L R
Sampling rate : 48.0 kHz
Frame rate : 31.250 FPS (1536 SPF)
Bit depth : 16 bits
Compression mode : Lossy
Stream size : 44.7 MiB (4%)
Service kind : Complete Main
Default : Yes
Forced : No

Аудио данные: AC3, 2 ch, 192 Кбит/с
Релиз от: ЗалилGreenRayStudio ОценкаНикто ещё не поставил оценку КатегорияЗарубежные сериалы Раздают0 Качают0 Сидер замечен29-12-2018 22:19:07 (6 месяцев назад) Добавлен14-09-2018 8:17:17 (10 месяцев назад) Размер4.95 GB (5311518294 Bytes)

Если у вас возникли проблемы с закачкой В свободном улете / Random Acts of Flyness [S01] (2018) WEBRip 720p | GreenРай Studio, перейдите по ссылке - там вы найдете решение своей проблемы.

Категория: Зарубежные сериалы

 

Скачать В свободном улете / Random Acts of Flyness [S01] (2018) WEBRip 720p | GreenРай Studio бесплатно без регистрации

 

Информация
Посетители, находящиеся в группе Гости, не могут оставлять комментарии к данной публикации.
 
 
Скачать В свободном улете / Random Acts of Flyness [S01] (2018) WEBRip 720p | GreenРай Studio бесплатно без регистрацииCopyright © 2019 .