Скачать Любимая дочь папы Карло (2008) DVDRip от New-Team бесплатно без регистрации





AVPStudio ОценкаНикто ещё не поставил оценку КатегорияНаши фильмы Раздают0 Качают0 Сидер замечен10-07-2019 19:19:13 (1 день назад) Добавлен10-11-2012 22:48:40 (81 месяц назад) Размер746.97 MB (783253504 Bytes)Год выпуска: 2008
Видео: 688x384 (16:9), 25 fps, XviD ~ 951 kbps avg, 0.144 bit/pixel
Перевод: не требуется
Тип релиза:Продолжительность: 01:35:56

Аудио: 48 kHz, MP3, 2 ch, 128.00 kbps
MediaInfo
Общее
Полное имя : Lubimaya.doch.papy.Karlo.2008.DVDRip_[Youtracker]_by_AVP Studio.avi
Формат : AVI
Формат/Информация : Audio Video Interleave
Размер файла : 747 Мбайт
Продолжительность : 1 ч. 35 м.
Общий поток : 1089 Кбит/сек
Программа кодирования : VirtualDubMod 1.5.10.3 | www.virtualdub-fr.org || (build 2550/release)
Библиотека кодирования : VirtualDubMod build 2550/release

Видео
Идентификатор : 0
Формат : MPEG-4 Visual
Профиль формата : Advanced Simple@L5
Параметр BVOP формата : 1
Параметр QPel формата : Нет
Параметр GMC формата : Без точки перехода
Параметр матрицы формата : Выборочная
Идентификатор кодека : XVID
Идентификатор кодека/Подсказка : XviD
Продолжительность : 1 ч. 35 м.
Битрейт : 951 Кбит/сек
Ширина : 688 пикселей
Высота : 384 пикселя
Соотношение сторон : 16:9
Частота кадров : 25,000 кадров/сек
Цветовое пространство : YUV
Субдискретизация насыщенности : 4:2:0
Битовая глубина : 8 бит
Тип развёртки : Прогрессивная
Метод сжатия : С потерями
Бит/(Пиксели*Кадры) : 0.144
Размер потока : 652 Мбайт (87%)
Библиотека кодирования : XviD 65

Аудио
Идентификатор : 1
Формат : MPEG Audio
Версия формата : Version 1
Профиль формата : Layer 3
Идентификатор кодека : 55
Идентификатор кодека/Подсказка : MP3
Продолжительность : 1 ч. 35 м.
Вид битрейта : Постоянный
Битрейт : 128 Кбит/сек
Каналы : 2 канала
Частота : 48,0 КГц
Метод сжатия : С потерями
Размер потока : 87,8 Мбайт (12%)
Выравнивание : Соединение по промежуткам
Продолжительность промежутка : 40 мс. (1,00 видеокадр)
Время предзагрузки промежутка : 504 мс.
Библиотека кодирования : L3.99r
Настройки программы : -m s -V 4 -q 2 -lowpass 17 -b 128

Скриншоты

ЗалилЖанр: драма, криминал
Режиссер: Армен Назикян

Страна: Россия
Контейнер: AVI

Оригинальная аудиодорожка: русский

Субтитры: нет
DVD9 R5
Исходник:В ролях: Андрей Смоляков, Татьяна Казючиц, Руслан Курик, Александр Саюталин, Виктор Васильев, Николай Рябычин, Денис Тарасенко, Андрей Шилько, Анна Кисель, Алёна Козырева...

Описание: Константин Воронцов, по прозвищу «Папа Карло», владелец крупной транспортной компании, не в силах смириться с тем, что единственная любимая дочь Катя выходит замуж наперекор его воле. Желая все вернуть назад, возмущенный своенравием дочери, Константин решает подставить новоиспеченного зятя Максима с целью упрятать его за решетку. Ослепленный ревностью «Папа Карло» забывает об одном: дочь сама имеет право решать свою судьбу…



DVDRip

Если у вас возникли проблемы с закачкой Любимая дочь папы Карло (2008) DVDRip от New-Team, перейдите по ссылке - там вы найдете решение своей проблемы.

Категория: Наши фильмы

 

Скачать Любимая дочь папы Карло (2008) DVDRip от New-Team бесплатно без регистрации

 

Информация
Посетители, находящиеся в группе Гости, не могут оставлять комментарии к данной публикации.
 
 
Скачать Любимая дочь папы Карло (2008) DVDRip от New-Team бесплатно без регистрацииCopyright © 2019 .