Скачать Не горюй! (1968) DVDRip-AVC от ExKinoRay бесплатно без регистрации






Информация о фильме
Качество: DVDRip-AVC
filbi1976 Оценка10 из 10 (2 голосов, самая низкая оценка - 10, самая высокая - 10) КатегорияНаши фильмы Раздают11 Качают0 Сидер замечен12-07-2019 3:19:11 (4 минуты назад) Добавлен02-04-2016 1:24:01 (40 месяцев назад) Размер2.10 GB (2253183622 Bytes)Кодек: x264
В ролях: Серго Закариадзе, Вахтанг Кикабидзе, Софико Чиаурели, Анастасия Вертинская, Лия Гудадзе, Верико Анджапаридзе, Сесилия Такаишвили, Ариадна Шенгелая, Георгий Кавтарадзе, Ипполит Хвичия, Карло Саканделидзе, Давид Абашидзе, Коте Даушвили, Евгений Леонов, Сергей Филиппов, Абессалом Лория, Леван Шамилов, Ия Нинидзе, Нана Канделаки, Баадур Цуладзе, Мераб Кокочашвили, Гия Бадридзе, Давид Кобахидзе, Фрунзик Мкртчян, Зураб Капианидзе, Александре Купрашвили

Перевод: не требуется

Название: Не горюй!
Год выхода: 1968
О фильме:
После окончания Петербургского университета, полный надежд и грандиозных планов, возвращается в родной городок молодой врач Бенжамен Глонти. Но жизнь, как и до его отъезда, течет своим чередом: растет семейство сестрицы Софико, усердно с утра до вечера переписывает бумаги ее муж Лука, время от времени спускаясь в погребок, чтобы опрокинуть рюмочку. И по-прежнему, слоняясь без дела, "достает" всех адвокат Додо. Бенжамен стал горевать по несостоявшейся жизни. И тогда, чтобы поправить дела брата, решила Софико женить его на дочери старого лекаря.

Звук: AC3, 6 ch, 448 Кбит/с


Скриншоты
Медиа-Инфоraw [info]: 716x572p 16:15 @ 25/1 fps (cfr)
x264 [info]: using SAR=16/15
x264 [info]: using cpu capabilities: MMX2 SSE2Fast SSSE3 SSE4.2 AVX
x264 [info]: profile High, level 4.1

x264 [info]: frame I:673 Avg QP:16.62 size: 73048
x264 [info]: frame P:28943 Avg QP:19.85 size: 29456
x264 [info]: frame B:103908 Avg QP:22.04 size: 10117
========================================================================================================
Общее
Уникальный идентификатор : 249404670493907285702189106106042008728 (0xBBA197A21D604181984A5D8DF2D5C498)
Полное имя : D:Не горюй_1969-DVDRip-AVC.mkv
Формат : Matroska
Версия формата : Version 2
Размер файла : 2,10 Гбайт
Продолжительность : 1 ч. 29 м.
Общий поток : 3375 Кбит/сек
Дата кодирования : UTC 2015-01-11 14:32:25
Программа кодирования : mkvmerge v5.2.1 ('A Far Off Place') built on Jan 31 2012 17:07:03
Библиотека кодирования : libebml v1.2.3 + libmatroska v1.3.0

Видео
Идентификатор : 1
Формат : AVC
Формат/Информация : Advanced Video Codec
Профиль формата : High@L4.1
Параметр CABAC формата : Да
Параметр ReFrames формата : 13 кадров
Идентификатор кодека : V_MPEG4/ISO/AVC
Продолжительность : 1 ч. 29 м.
Битрейт : 2925 Кбит/сек
Ширина : 716 пикселей
Высота : 572 пикселя
Соотношение сторон : 4:3
Соотношение сторон в оригинале : 4:3
Режим частоты кадров : Постоянный
Частота кадров : 25,000 кадров/сек
Цветовое пространство : YUV
Субдискретизация насыщенности : 4:2:0
Битовая глубина : 8 бит
Тип развёртки : Прогрессивная
Бит/(Пиксели*Кадры) : 0.286
Размер потока : 1,78 Гбайт (85%)
Библиотека кодирования : x264 core 130 r2273 b3065e6
Настройки программы : cabac=1 / ref=13 / deblock=1:-2:-2 / analyse=0x3:0x133 / me=umh / subme=10 / psy=1 / psy_rd=1.07:0.15 / mixed_ref=1 / me_range=32 / chroma_me=1 / trellis=2 / 8x8dct=1 / cqm=0 / deadzone=21,11 / fast_pskip=0 / chroma_qp_offset=-3 / threads=12 / lookahead_threads=2 / sliced_threads=0 / nr=0 / decimate=0 / interlaced=0 / bluray_compat=0 / constrained_intra=0 / bframes=7 / b_pyramid=2 / b_adapt=2 / b_bias=0 / direct=3 / weightb=1 / open_gop=0 / weightp=2 / keyint=250 / keyint_min=25 / scenecut=40 / intra_refresh=0 / rc=2pass / mbtree=0 / bitrate=2925 / ratetol=1.0 / qcomp=0.60 / qpmin=0 / qpmax=39 / qpstep=4 / cplxblur=20.0 / qblur=0.5 / ip_ratio=1.40 / pb_ratio=1.30 / aq=1:1.00
Default : Да
Forced : Нет
Основные цвета : BT.601 PAL
Характеристики трансфера : BT.470 System B, BT.470 System G
Коэффициенты матрицы : BT.601
colour_range : Limited

Аудио
Идентификатор : 2
Формат : AC-3
Формат/Информация : Audio Coding 3
Расширение режима : CM (complete main)
Параметр Endianness формата : Big
Идентификатор кодека : A_AC3
Продолжительность : 1 ч. 29 м.
Вид битрейта : Постоянный
Битрейт : 448 Кбит/сек
Каналы : 6 каналов
Расположение каналов : Front: L C R, Side: L R, LFE
Частота : 48,0 КГц
Битовая глубина : 16 бит
Метод сжатия : С потерями
Размер потока : 285 Мбайт (13%)
Default : Да
Forced : Нет
Жанр: Комедия
Продолжительность: 01:29:01
Режиссер: Георгий Данелия
Видео: MPEG-4 AVC, 2925 Кбит/с, 716x572@764x572
Автор релиза: ЗалилСтрана: СССР, Мосфильм
Релиз от:

Если у вас возникли проблемы с закачкой Не горюй! (1968) DVDRip-AVC от ExKinoRay, перейдите по ссылке - там вы найдете решение своей проблемы.

Категория: Наши фильмы

 

Скачать Не горюй! (1968) DVDRip-AVC от ExKinoRay бесплатно без регистрации

 

Информация
Посетители, находящиеся в группе Гости, не могут оставлять комментарии к данной публикации.
 
 
Скачать Не горюй! (1968) DVDRip-AVC от ExKinoRay бесплатно без регистрацииCopyright © 2019 .