Скачать Ошибка времени / Time Lapse (2014) HDRip от Spirit Summer | P бесплатно без регистрации






Видео: ~ 1670 Кбит/сек, 704x392
Звук: 48 kHz, MPEG Layer 3, 2 ch, 192 Кбит/сек
Режиссёр: Брэдли Кинг
Продолжительность: 01:44
В ролях:
Даниэль Панабэйкер, Мэтью О’Лири, Джордж Финн, Джон Рис-Дэвис, Эймин Джозеф, Джейсон Спайсэк, Дэвид Фильоли, Шэрон Мофан, Джудит Дрэйк,
Марк С. Хэнсон



Трое приятелей - подающий надежды художник и по совместительству управдом Финн, его девушка официантка и писательница Кэлли и их друг Джаспер, помешанный на собачьих гонках, — находят в комнате соседа-ученого странное изобретение — машину, печатающую фотографии из будущего дня. Теперь Джаспер знает, на каких собак нужно ставить, и Финн и Кэлли могут, наконец, посвятить себя любимым занятиям. Но вскоре визуальные пророчества
загадочной машины начинают обескураживать и пугать героев…

Информация:

Spirit Summer ОценкаНикто ещё не поставил оценку КатегорияЗарубежные фильмы Раздают3 Качают1 Сидер замечен12-07-2019 1:19:11 (4 минуты назад) Добавлен31-03-2016 11:26:32 (40 месяцев назад) Размер1.36 GB (1461309440 Bytes)Кодек: Xvid
Контейнер: AVI
Качество: HDRip ( исходник Bdrip 1080p )
Оригинальное название: Time Lapse
Субтитры: Отсутствуют


Mediainfo:Общее
Полное имя : Time Lapse.2014.HDRipTime Lapse.2014.HDRip.Avi
Формат : AVI
Формат/Информация : Audio Video Interleave
Размер файла : 1,36 Гбайт
Продолжительность : 1 ч. 44 м.
Общий поток : 1871 Кбит/сек
Программа кодирования : VirtualDubMod 1.5.10.3 | www.virtualdub-fr.org || (build 2550/release)
Библиотека кодирования : VirtualDubMod build 2550/release

Видео
Идентификатор : 0
Формат : MPEG-4 Visual
Профиль формата : Advanced Simple@L5
Параметр BVOP формата : 1
Параметр QPel формата : Нет
Параметр GMC формата : Без точки перехода
Параметр матрицы формата : Default (MPEG)
Идентификатор кодека : XVID
Идентификатор кодека/Подсказка : XviD
Продолжительность : 1 ч. 44 м.
Битрейт : 1670 Кбит/сек
Ширина : 704 пикселя
Высота : 392 пикселя
Соотношение сторон : 16:9
Частота кадров : 23,976 (23976/1000) кадра/сек
Цветовое пространство : YUV
Субдискретизация насыщенности : 4:2:0
Битовая глубина : 8 бит
Тип развёртки : Прогрессивная
Метод сжатия : С потерями
Бит/(Пиксели*Кадры) : 0.252
Размер потока : 1,21 Гбайт (89%)
Библиотека кодирования : XviD 1.2.1 (UTC 2008-12-04)

Аудио
Идентификатор : 1
Формат : MPEG Audio
Версия формата : Version 1
Профиль формата : Layer 3
Идентификатор кодека : 55
Идентификатор кодека/Подсказка : MP3
Продолжительность : 1 ч. 44 м.
Вид битрейта : Постоянный
Битрейт : 192 Кбит/сек
Каналы : 2 канала
Частота : 48,0 КГц
Метод сжатия : С потерями
Размер потока : 143 Мбайт (10%)
Выравнивание : Соединение по промежуткам
Продолжительность промежутка : 42 мс. (1,00 видеокадр)
Время предзагрузки промежутка : 504 мс.
Библиотека кодирования : LAME3.99r
Настройки программы : -m s -V 4 -q 0 -lowpass 18.6 -b 192

--------------------------------------------------------------------------------


XviD4PSP
------------------------------
Version: 5.10.346.0
Created: 12.02.2015 12:46:56
AppPath: C:Program Files (x86)XviD4PSP 5
TempPath: D:Temp

FILES
------------------------------
Time Lapse.2014.BDRip.1080p.mkv >
Time Lapse.2014.HDRip.Avi

TASK
------------------------------
Format: AVI Hardware
Duration: 01:44:08:248 (149808)
VideoDecoder: FFmpegSource2
Resolution: 1920x1080 > 704x392
Aspect: 1.7944 > 1.7959
VCodecPreset: Custom
VEncodingMode: TwoPass
VideoCodec: h264 > XviD (1.2.2)
VideoBitrate: 10035 > 1670
Quality: 0.202 > 0.252
Framerate: 23.976
SourceType: PROGRESSIVE
FieldOrder: UNKNOWN
AudioDecoder: NicAC3Source
AEncodingPreset: MP3 CBR 192k Quality
AudioCodec: AC3 > MP3
AudioBitrate: 192
Samplerate: 48000
Channels: 2


------------------------------
Import("C:Program Files (x86)XviD4PSP 5dllsAviSynthfunctionsAudioFunctions.avs")
Import("C:Program Files (x86)XviD4PSP 5dllsAviSynthfunctionsVideoFunctions.avs")
LoadPlugin("C:Program Files (x86)XviD4PSP 5dllsAviSynthpluginsFFMS2.dll")
Import("C:Program Files (x86)XviD4PSP 5dllsAviSynthpluginsFFMS2.avsi")
LoadPlugin("C:Program Files (x86)XviD4PSP 5dllsAviSynthpluginsNicAudio.dll")

video = FFmpegSource2("D:MediaФильмы под записьНовая папкаTime Lapse.2014.BDRip.1080p.mkv", rffmode=0, threads=1, cachefile="D:TempTime Lapse.2014.BDRip.1080p.mkv.ffindex").AssumeFPS(23.976)
audio = NicAC3Source("D:Temp�000_0.ac3")
AudioDub(video, audio)

ConvertToYV12()

###[FILTERING]###
###[FILTERING]###

Crop(0, 6, -0, -4)
Lanczos4Resize(704, 392)



AUDIO ENCODING
------------------------------
Encoding audio to: D:Temp�001.mp3
MP3 192kbps 2ch 16bit 48000khz

lame.exe: -m s -b 192 -q 0 --replaygain-accurate - "D:Temp�001.mp3"


VIDEO ENCODING
------------------------------
Encoding video to: D:Temp�001.avi
XviD (1.2.2) 1670kbps 704x392 23.976fps (149808 frames)

...first pass...

xvid_encraw.exe: -pass1 "D:Temp�001_1.log" -qtype 1 -vhqmode 4 -nopacked -bvhq -max_bframes 1 -bquant_ratio 162 -bquant_offset 0 -max_key_interval 250 -threads 4 -i "D:Temp�001.avs" -o NUL

Tot: enctime(ms) =9362834.00, length(bytes) = 911733156
Avg: enctime(ms) = 62.50, fps = 16.00, length(bytes) = 6085
I frames: 1605 frames, size = 27834/ 44675053, quants = 2 / 2.00 / 2
P frames: 74895 frames, size = 9450/ 707806882, quants = 2 / 2.00 / 2
B frames: 73303 frames, size = 2172/ 159251186, quants = 3 / 3.00 / 3
N frames: 5 frames, size = 7/ 35

Trying to retrieve width and height from input header
xvid [info]: Avisynth detected
xvid [info]: Input colorspace is YV12
xvid [info]: Input is 704 x 392, 23.976fps (2997/125), starting from frame 0
xvid [info]: Number of frames to encode: 149808
xvid [info]: xvidcore build version: xvid-1.2.2
xvid [info]: Bitstream version: 1.2.2
xvid [info]: Detected CPU flags: ASM MMX MMXEXT SSE SSE2 TSC
xvid [info]: Detected cpus = 2, threads requested = 3, threads in use = 3
xvid [info]: Threaded input reading active

...last pass...

xvid_encraw.exe: -pass2 "D:Temp�001_1.log" -bitrate 1670 -qtype 1 -vhqmode 4 -nopacked -bvhq -max_bframes 1 -bquant_ratio 162 -bquant_offset 0 -max_key_interval 250 -chigh 10 -clow 3 -vbvmax 7281300 -vbvsize 4718592 -imin 1 -imax 4 -pmin 1 -pmax 4 -bmin 1 -bmax 5 -threads 4 -i "D:Temp�001.avs" -avi "D:Temp�001.avi"

Tot: enctime(ms) =37798847.00, length(bytes) = 1304073667
Avg: enctime(ms) = 252.31, fps = 3.96, length(bytes) = 8704
I frames: 1605 frames, size = 43078/ 69140744, quants = 1 / 1.31 / 2
P frames: 74897 frames, size = 12636/ 946422075, quants = 1 / 1.75 / 3
B frames: 73303 frames, size = 3935/ 288510827, quants = 1 / 2.45 / 4
N frames: 3 frames, size = 7/ 21

Trying to retrieve width and height from input header
xvid [info]: Avisynth detected
xvid [info]: Input colorspace is YV12
xvid [info]: Input is 704 x 392, 23.976fps (2997/125), starting from frame 0
xvid [info]: Number of frames to encode: 149808, Bitrate = 1670kbps
xvid [info]: xvidcore build version: xvid-1.2.2
xvid [info]: Bitstream version: 1.2.2
xvid [info]: Detected CPU flags: ASM MMX MMXEXT SSE SSE2 TSC
xvid [info]: Detected cpus = 2, threads requested = 3, threads in use = 3
xvid [info]: Threaded input reading active


MUXING
------------------------------
Video file: D:Temp�001.avi
Audio file: D:Temp�001.mp3
Muxing to: D:Time Lapse.2014.HDRip.Avi

virtualdubmod.exe: /x /s"D:Temp�001.vcf"


TIME
------------------------------
Общее время кодирования: 13 hour 22 min 28 sec
Файл получился на: 1393.61 mb

MediaInfoLib - v0.7.72

General
Complete name : D:Time Lapse.2014.HDRip.Avi
Format : AVI
Format/Info : Audio Video Interleave
File size : 1.36 GiB
Duration : 1h 44mn
Overall bit rate : 1 871 Kbps
Writing application : VirtualDubMod 1.5.10.3 | www.virtualdub-fr.org || (build 2550/release)
Writing library : VirtualDubMod build 2550/release

Video
ID : 0
Format : MPEG-4 Visual
Format profile : Advanced Simple@L5
Format settings, BVOP : 1
Format settings, QPel : No
Format settings, GMC : No warppoints
Format settings, Matrix : Default (MPEG)
Codec ID : XVID
Codec ID/Hint : XviD
Duration : 1h 44mn
Bit rate : 1 670 Kbps
Width : 704 pixels
Height : 392 pixels
Display aspect ratio : 16:9
Frame rate : 23.976 fps
Color space : YUV
Chroma subsampling : 4:2:0
Bit depth : 8 bits
Scan type : Progressive
Compression mode : Lossy
Bits/(Pixel*Frame) : 0.252
Stream size : 1.21 GiB (89%)
Writing library : XviD 1.2.1 (UTC 2008-12-04)

Audio
ID : 1
Format : MPEG Audio
Format version : Version 1
Format profile : Layer 3
Codec ID : 55
Codec ID/Hint : MP3
Duration : 1h 44mn
Bit rate mode : Constant
Bit rate : 192 Kbps
Channel(s) : 2 channels
Sampling rate : 48.0 KHz
Compression mode : Lossy
Stream size : 143 MiB (10%)
Alignment : Aligned on interleaves
Interleave, duration : 42 ms (1.00 video frame)
Interleave, preload duration : 504 ms
Writing library : LAME3.99r
Encoding settings : -m s -V 4 -q 0 -lowpass 18.6 -b 192Исходник:ОбщееУникальный идентификатор : 218527476465994564705445853945971240989 (0xA466DC6E68F8B93286E4D88D3436701D)
Полное имя : Time Lapse.2014.BDRip.1080p.mkv
Формат : Matroska
Версия формата : Version 2
Размер файла : 7,77 Гбайт
Продолжительность : 1 ч. 44 м.
Общий поток : 10,7 Мбит/сек
Название фильма : Time Lapse.2014.BDRip.1080p
Дата кодирования : UTC 2016-03-23 17:53:08
Программа кодирования : mkvmerge v4.0.0 ('The Stars were mine') сборка от Jun 6 2010 16:18:42
Библиотека кодирования : libebml v1.0.0 + libmatroska v1.0.0

Видео
Идентификатор : 1
Формат : AVC
Формат/Информация : Advanced Video Codec
Профиль формата : High@L4.1
Параметр CABAC формата : Да
Параметр ReFrames формата : 4 кадра
Идентификатор кодека : V_MPEG4/ISO/AVC
Продолжительность : 1 ч. 44 м.
Битрейт : 10,0 Мбит/сек
Ширина : 1920 пикселей
Высота : 1080 пикселей
Соотношение сторон : 16:9
Режим частоты кадров : Постоянный
Частота кадров : 23,976 (23976/1000) кадра/сек
Цветовое пространство : YUV
Субдискретизация насыщенности : 4:2:0
Битовая глубина : 8 бит
Тип развёртки : Прогрессивная
Бит/(Пиксели*Кадры) : 0.202
Размер потока : 7,15 Гбайт (92%)
Заголовок : Rip by -=WALLEDOL=-
Библиотека кодирования : x264 core 148 r2665 a01e339
Настройки программы : cabac=1 / ref=4 / deblock=1:-3:-3 / analyse=0x3:0x133 / me=umh / subme=10 / psy=1 / psy_rd=1.00:0.10 / mixed_ref=1 / me_range=32 / chroma_me=1 / trellis=2 / 8x8dct=1 / cqm=0 / deadzone=21,11 / fast_pskip=0 / chroma_qp_offset=-3 / threads=6 / lookahead_threads=1 / sliced_threads=0 / nr=0 / decimate=1 / interlaced=0 / bluray_compat=0 / constrained_intra=0 / bframes=8 / b_pyramid=2 / b_adapt=2 / b_bias=0 / direct=3 / weightb=1 / open_gop=0 / weightp=2 / keyint=240 / keyint_min=23 / scenecut=40 / intra_refresh=0 / rc=2pass / mbtree=0 / bitrate=10035 / ratetol=1.0 / qcomp=0.60 / qpmin=0 / qpmax=69 / qpstep=4 / cplxblur=20.0 / qblur=0.5 / ip_ratio=1.40 / pb_ratio=1.30 / aq=1:1.00
Язык : English
Default : Нет
Forced : Нет

Аудио #1
Идентификатор : 2
Формат : AC-3
Формат/Информация : Audio Coding 3
Расширение режима : CM (complete main)
Параметр Endianness формата : Big
Идентификатор кодека : A_AC3
Продолжительность : 1 ч. 44 м.
Вид битрейта : Постоянный
Битрейт : 192 Кбит/сек
Каналы : 2 канала
Расположение каналов : Front: L R
Частота : 48,0 КГц
Частота кадров : 31,250 кадров/сек (1536 spf)
Метод сжатия : С потерями
Размер потока : 143 Мбайт (2%)
Заголовок : MVO
Язык : Russian
Default : Да
Forced : Да

Аудио #2
Идентификатор : 3
Формат : AC-3
Формат/Информация : Audio Coding 3
Расширение режима : CM (complete main)
Параметр Endianness формата : Big
Идентификатор кодека : A_AC3
Продолжительность : 1 ч. 44 м.
Вид битрейта : Постоянный
Битрейт : 448 Кбит/сек
Каналы : 6 каналов
Расположение каналов : Front: L C R, Side: L R, LFE
Частота : 48,0 КГц
Частота кадров : 31,250 кадров/сек (1536 spf)
Метод сжатия : С потерями
Размер потока : 334 Мбайт (4%)
Язык : English
Default : Нет
Forced : Нет

Текст #1
Идентификатор : 4
Формат : UTF-8
Идентификатор кодека : S_TEXT/UTF8
Идентификатор кодека/Информация : UTF-8 Plain Text
Заголовок : Full
Язык : Russian
Default : Нет
Forced : Нет

Текст #2
Идентификатор : 5
Формат : UTF-8
Идентификатор кодека : S_TEXT/UTF8
Идентификатор кодека/Информация : UTF-8 Plain Text
Заголовок : SDH
Язык : English
Default : Нет
Forced : Нет

Меню
00:00:00.000 : en:Chapter 1
00:04:39.529 : en:Chapter 2
00:14:20.568 : en:Chapter 3
00:25:30.403 : en:Chapter 4
00:34:59.597 : en:Chapter 5
00:44:53.982 : en:Chapter 6
00:55:05.301 : en:Chapter 7
01:00:37.717 : en:Chapter 8
01:10:58.420 : en:Chapter 9
01:18:21.488 : en:Chapter 10
01:28:01.734 : en:Chapter 11
01:38:57.973 : en:Chapter 12
01:44:07.991 : en:Chapter 13 ЗалилГод: 2014

Студия: Royal Pictures
Страна: США
Название: Ошибка времени
Перевод: Профессиональный (многоголосый закадровый)
Жанр: Фантастика, Триллер

Если у вас возникли проблемы с закачкой Ошибка времени / Time Lapse (2014) HDRip от Spirit Summer | P, перейдите по ссылке - там вы найдете решение своей проблемы.

Категория: Зарубежные фильмы

 

Скачать Ошибка времени / Time Lapse (2014) HDRip от Spirit Summer | P бесплатно без регистрации

 

Информация
Посетители, находящиеся в группе Гости, не могут оставлять комментарии к данной публикации.
 
 
Скачать Ошибка времени / Time Lapse (2014) HDRip от Spirit Summer | P бесплатно без регистрацииCopyright © 2019 .