Скачать Eagles - Farewell I Tour: Live From Melbourne 2004 (2013) BDRip 1080p бесплатно без регистрации






Треклист:
01. The Long Run
02. New Kid In Town
03. Wasted Time
a. Wasted Time
b. Wasted Time (reprise)
04. Peaceful Easy Feeling
05. I Can't Tell You Why
06. One Of These Nights
07. One Day At A Time (new track!)
08. Lyin' Eyes
09. The Boys Of Summer
10. In The City
11. Already Gone
12. Silent Spring (intro)
13. Tequila Sunrise
14. Love Will Keep Us Alive
15. No More Cloudy Days (new track!)
16. Hole In The World
17. Take It To The Limit
18. You Belong To The City
19. Walk Away
20. Sunset Grill
21. Life's Been Good
22. Dirty Laundry
23. Funk #49
24. Heartache Tonight
25. Life In The Fast Lane
26. Hotel California
27. Rocky Mountain Way
28. All She Wants To Do Is Dance
29. Take It Easy
30. Desperado

Продолжительность: 02:44:23

Название: Eagles - Farewell I Tour: Live From Melbourne 2004
likko Оценка10 из 10 (2 голосов, самая низкая оценка - 10, самая высокая - 10) КатегорияМузыка Раздают1 Качают0 Сидер замечен11-07-2019 23:19:12 (4 минуты назад) Добавлен08-06-2016 9:58:01 (38 месяцев назад) Размер18.96 GB (20356319661 Bytes)Просьба на Rutrаcker не перезаливать! ЗалилИсполнитель: Eagles
Видео: MPEG4 Video (H264), 1920x1080, 29.97fps, 12.7 Mbps
Год выпуска: 2013
Аудио: DTS, 48000 Hz, 6ch, 1509 kbps
Видео кодек: H264
Сэмпл

MediaInfo: General
Unique ID : 206656875337830284717263887677685211831 (0x9B78AA9BFC8122079FB7B3E6CB9BA2B7)
Complete name : F:DVDRip2005 Eagles Farewell I Tour.mkv
Format : Matroska
Format version : Version 4 / Version 2
File size : 19.0 GiB
Duration : 2h 44mn
Overall bit rate : 16.5 Mbps
Movie name : 2005 Eagles Farewell I Tour / renta23
Encoded date : UTC 2016-06-07 18:18:57
Writing application : mkvmerge v8.3.0 ('Over the Horizon') 64bit
Writing library : libebml v1.3.1 + libmatroska v1.4.2

Video
ID : 1
Format : AVC
Format/Info : Advanced Video Codec
Format profile : High@L4.1
Format settings, CABAC : Yes
Format settings, ReFrames : 4 frames
Codec ID : V_MPEG4/ISO/AVC
Duration : 2h 44mn
Bit rate : 12.7 Mbps
Width : 1 920 pixels
Height : 1 080 pixels
Display aspect ratio : 16:9
Frame rate mode : Constant
Frame rate : 29.970 (30000/1001) fps
Color space : YUV
Chroma subsampling : 4:2:0
Bit depth : 8 bits
Scan type : Progressive
Bits/(Pixel*Frame) : 0.204
Stream size : 14.6 GiB (77%)
Title : 2005 Eagles Farewell I Tour
Writing library : x264 core 146 r2538 121396c
Encoding settings : cabac=1 / ref=4 / deblock=1:-1:-1 / analyse=0x3:0x133 / me=umh / subme=11 / psy=1 / psy_rd=1.07:0.23 / mixed_ref=1 / me_range=24 / chroma_me=1 / trellis=2 / 8x8dct=1 / cqm=0 / deadzone=21,11 / fast_pskip=0 / chroma_qp_offset=-3 / threads=12 / lookahead_threads=3 / sliced_threads=0 / nr=0 / decimate=1 / interlaced=0 / bluray_compat=0 / constrained_intra=0 / bframes=10 / b_pyramid=2 / b_adapt=2 / b_bias=0 / direct=3 / weightb=1 / open_gop=0 / weightp=2 / keyint=250 / keyint_min=25 / scenecut=40 / intra_refresh=0 / rc=2pass / mbtree=0 / bitrate=12700 / ratetol=1.0 / qcomp=0.60 / qpmin=0 / qpmax=69 / qpstep=4 / cplxblur=20.0 / qblur=0.5 / ip_ratio=1.40 / pb_ratio=1.30 / aq=2:1.00
Language : English
Default : Yes
Forced : No

Audio #1
ID : 2
Format : DTS
Format/Info : Digital Theater Systems
Mode : 16
Format settings, Endianness : Big
Codec ID : A_DTS
Duration : 2h 44mn
Bit rate mode : Constant
Bit rate : 1 509 Kbps
Channel(s) : 6 channels
Channel positions : Front: L C R, Side: L R, LFE
Sampling rate : 48.0 KHz
Frame rate : 93.750 fps (512 spf)
Bit depth : 24 bits
Compression mode : Lossy
Stream size : 1.73 GiB (9%)
Title : DTS 5.1
Language : English
Default : Yes
Forced : No

Audio #2
ID : 3
Format : PCM
Codec ID : A_PCM/INT/LIT
Duration : 2h 44mn
Bit rate mode : Constant
Bit rate : 2 304 Kbps
Channel(s) : 2 channels
Sampling rate : 48.0 KHz
Frame rate : 32.000 fps (1500 spf)
Bit depth : 24 bits
Stream size : 2.65 GiB (14%)
Title : PCM Stereo
Language : English
Default : No
Forced : No

Menu
00:00:00.000 : en:Opening Sequence
00:01:35.361 : en:The Long Run
00:06:26.719 : en:New Kid In Town
00:11:29.388 : en:Wasted Time
00:17:41.493 : en:Peaceful Easy Feeling
00:22:06.024 : en:I Can't Tell You Why
00:27:05.824 : en:One of These Nights
00:31:59.484 : en:One Day At A Time
00:36:19.844 : en:Lyin' Eyes
00:42:49.033 : en:The Boys of Summer
00:47:54.671 : en:In The City
00:52:26.076 : en:Already Gone
00:57:01.117 : en:Silent Spring (Intro)
00:57:37.220 : en:Tequila Sunrise
01:01:07.730 : en:Love Will Keep Us Alive
01:05:44.640 : en:No More Cloudy Days
01:10:44.807 : en:Hole In The World
01:15:17.045 : en:Take It To The Limit
01:19:17.252 : en:You Belong To The City
01:26:39.160 : en:Walk Away
01:30:35.029 : en:Sunset Grill
01:39:08.943 : en:Introducing The Band
01:39:31.432 : en:Joe's Helmet Cam
01:47:19.266 : en:Life's Been Good
01:53:36.309 : en:Dirty Laundry
01:58:50.022 : en:Funk #49
02:03:57.296 : en:Heartache Tonight
02:10:23.715 : en:Life In The Fast Lane
02:19:24.656 : en:Hotel California
02:25:15.940 : en:Rocky Mountain Way
02:31:42.093 : en:All She Wants To Do Is Dance
02:35:32.690 : en:Take It Easy
02:40:05.395 : en:Desperado
02:44:22.185 : en:Credits and Eagles Interviews






Аудио кодек: DTS, PCM
Формат: MKV
Состав:
Glenn Frey - guitars, piano, keyboards, vocals;
Joe Walsh - guitars, keyboards, vocals;
Timothy B. Schmit - bass guitar, vocals;
Don Henley - drums, percussion, guitars, vocals;
Steuart Smith - guitars, backing vocals;
Michael Thompson - keyboards, accordion;
Willie Hollis - keyboards, backing vocals;
Scott Crago - drums, percussion, sound FX;
Bill Armstrong - trumpet;
Al Garth - Saxophone, violin, percussion;
Christian Mostert - tenor and alto saxophone;
Greg Smith - baritone saxophone;

Описание: The Eagles — американская рок-группа, которая настолько талантливо исполняла мелодичный гитарный кантри-рок, что в течение десяти лет своего существования сумела пять раз возглавить американские поп-чарты синглов (Billboard Hot 100) и четырежды — хит-парад альбомов (Billboard Top 200). Сборник их величайших хитов, выпущенный еще в 1976 году, был распродан тиражом в 30 миллионов экземпляров и до сих пор остаётся одним из самых продаваемым альбомом в истории США. В общей сложности в Америке было реализовано 65.000.000 копий их альбомов, что делает их третьим по популярности в США коллективом всех времен, после The Beatles и Led Zeppelin. В релизе представлен австралийский концерт "The Farewell 1 Tour" на RodLaver Arena в Мельбурне в ноябре 2004 года.

Качество: BDRip 1080p
Жанр: Rock
Аудио: PCM, 48000 Hz, 2ch, 2304 kbps

Если у вас возникли проблемы с закачкой Eagles - Farewell I Tour: Live From Melbourne 2004 (2013) BDRip 1080p, перейдите по ссылке - там вы найдете решение своей проблемы.

Категория: Музыка

 

Скачать Eagles - Farewell I Tour: Live From Melbourne 2004 (2013) BDRip 1080p бесплатно без регистрации

 

Информация
Посетители, находящиеся в группе Гости, не могут оставлять комментарии к данной публикации.
 
 
Скачать Eagles - Farewell I Tour: Live From Melbourne 2004 (2013) BDRip 1080p бесплатно без регистрацииCopyright © 2019 .