Скачать Сила Веры [01-04 из 04] (2013) DVB бесплатно без регистрации






Информация о фильме
Выпущено: Россия
Жанр: Мелодрама
Аудио: MPEG Audio, 48 kHz, 1 ch, 128 kbps
MI
General
Complete name : C:Сила Веры_1-4 из 4_2013_DVB.mpg
Format : MPEG-PS
File size : 3.27 GiB
Duration : 3h 4mn
Overall bit rate mode : Variable
Overall bit rate : 2 528 Kbps

Video
ID : 224 (0xE0)
Format : MPEG Video
Format version : Version 2
Format profile : Main@Main
Format settings, BVOP : Yes
Format settings, Matrix : Custom
Format settings, GOP : M=3, N=12
Duration : 3h 4mn
Bit rate mode : Variable
Bit rate : 2 350 Kbps
Maximum bit rate : 9 000 Kbps
Width : 544 pixels
Height : 576 pixels
Display aspect ratio : 4:3
Frame rate : 25.000 fps
Color space : YUV
Chroma subsampling : 4:2:0
Bit depth : 8 bits
Scan type : Interlaced
Scan order : Top Field First
Compression mode : Lossy
Bits/(Pixel*Frame) : 0.300
Time code of first frame : 00:00:00:00
Time code source : Group of pictures header
Stream size : 3.04 GiB (93%)

Audio
ID : 192 (0xC0)
Format : MPEG Audio
Format version : Version 1
Format profile : Layer 2
Duration : 3h 4mn
Bit rate mode : Constant
Bit rate : 128 Kbps
Channel(s) : 1 channel
Sampling rate : 48.0 KHz
Compression mode : Lossy
Stream size : 169 MiB (5%)
Скриншоты
ЗалилПродолжительность: 4х ~ 00:45:00
Видео кодек: MPEG2
О фильме: Тридцатилетняя Вера всю жизнь мечтала стать матерью. Но увы, познать счастье материнства ей не дано. Однажды она обнаруживает, что именно это явилось причиной измены мужа: у него есть другая семья, в которой родился ребенок. Вера думает, что никогда не простит этого поступка. Однако жизнь заставляет ее изменить свое решение: спустя время бывший муж, вместе с новой женой, гибнут в автомобильной катастрофе, а ребенок, явившийся причиной одиночества Веры, остается сиротой. Сумеет ли героиня полюбить чужое дитя и понять, что мать это не та, кто родила, а та, кто воспитала.

Режиссер: Александр Карпиловский
Аудио кодек: MP2
DGEKIGAN ОценкаНикто ещё не поставил оценку КатегорияНаши сериалы Раздают0 Качают1 Сидер замечен23-01-2019 14:19:06 (6 месяцев назад) Добавлен20-05-2013 1:48:01 (75 месяцев назад) Размер3.27 GB (3507881984 Bytes)Формат: MPEG-PS
В ролях: Марина Денисова, Никита Салопин, Максим Щёголев, Галина Петрова, Анжелика Агурбаш, Святослав Астрамович, Алеся Пуховая, Дмитрий Пустильник, Инна Коляда

Оригинальное название: Сила Веры
Качество: DVB
Год выпуска: 2013
Видео: MPEG2 Video, 544x576 (4:3), 25 fps, 2350 Kbps, 0.30 bit/pixel

Если у вас возникли проблемы с закачкой Сила Веры [01-04 из 04] (2013) DVB, перейдите по ссылке - там вы найдете решение своей проблемы.

Категория: Наши сериалы

 

Скачать Сила Веры [01-04 из 04] (2013) DVB бесплатно без регистрации

 

Информация
Посетители, находящиеся в группе Гости, не могут оставлять комментарии к данной публикации.
 
 
Скачать Сила Веры [01-04 из 04] (2013) DVB бесплатно без регистрацииCopyright © 2019 .