Скачать Дежурная аптека / Farmacia de Guardia [S01-05 из 05] (1991-1995) SATRip бесплатно без регистрации






Информация о фильме
Название: Дежурная аптека
Год выхода: 1991-1995
О фильме:
Сериал рассказывает о неугомонном семействе хозяйки аптеки Лурдес Кано. Ее сыновья Кике и Гильермо, бывший муж Адольфо, папочка дон Энрике постоянно попадают в различные забавные ситуации, выпутываться из которых им помогают все подряд: сотрудница Лурдес — Пили, соседки донья Пакита и Бегония, и даже стражи порядка Ромералес и Мария де ла Энкарнасьон.



Субтитры: Русский

Режиссер: Антонио Мерсеро
Официальный сайт http://www.antena3.com/series/farmacia-de-guardia

Страна: Испания
Жанр: комедия
Оригинальное название: Farmacia de Guardia
В ролях: Конча Куэтос, Карлос Ларраньяга, Хулиан Гонсалес, Мигель Анхель Гарсон, Хосе Сориано, Мария Луиза Понте, Сесарио Эстебанес, Маручи Леон, Эсперанса Грасес, Африка Госалбес, Мари Анхелес Гарралон

Продолжительность: ~00:30:00
Студия: Антена 3
Семпл

Скриншоты1 Сезон

2 Сезон

3 Сезон

4 Сезон

5 Сезон Оценка10 из 10 (9 голосов, самая низкая оценка - 10, самая высокая - 10) КатегорияЗарубежные сериалы Раздают1 Качают0 Сидер замечен11-07-2019 10:19:12 (4 минуты назад) Добавлен08-03-2018 18:20:35 (16 месяцев назад) Размер49.14 GB (52762065920 Bytes)Кодек: XviD
Качество: SATRip
Данные видео 1 Сезон
Видео
Идентификатор : 0
Формат : MPEG-4 Visual
Профиль формата : Advanced Simple@L5
Параметр BVOP формата : 2
Параметр QPel формата : Нет
Параметр GMC формата : Без точки перехода
Параметр матрицы формата : Default (H.263)
Идентификатор кодека : XVID
Идентификатор кодека/Подсказка : XviD
Продолжительность : 25 м.
Битрейт : 1198 Кбит/сек
Ширина : 720 пикселей
Высота : 544 пикселя
Соотношение сторон : 4:3
Частота кадров : 25,000 кадров/сек
Цветовое пространство : YUV
Субдискретизация насыщенности : 4:2:0
Битовая глубина : 8 бит
Тип развёртки : Прогрессивная
Метод сжатия : С потерями
Бит/(Пиксели*Кадры) : 0.122
Размер потока : 217 Мбайт (82%)
Библиотека кодирования : XviD 1.2.1 (UTC 2008-12-04)

Аудио #1
Идентификатор : 1
Формат : MPEG Audio
Версия формата : Version 1
Профиль формата : Layer 3
Идентификатор кодека : 55
Идентификатор кодека/Подсказка : MP3
Продолжительность : 25 м.
Вид битрейта : Постоянный
Битрейт : 128 Кбит/сек
Каналы : 1 канал
Частота : 48,0 КГц
Метод сжатия : С потерями
Размер потока : 23,2 Мбайт (9%)
Выравнивание : Соединение по промежуткам
Продолжительность промежутка : 594 мс. (14,84 видеокадров)
Время предзагрузки промежутка : 216 мс.
Заголовок : rus

Аудио #2
Идентификатор : 2
Формат : MPEG Audio
Версия формата : Version 1
Профиль формата : Layer 3
Режим : Joint stereo
Расширение режима : MS Stereo
Идентификатор кодека : 55
Идентификатор кодека/Подсказка : MP3
Продолжительность : 25 м.
Вид битрейта : Постоянный
Битрейт : 128 Кбит/сек
Каналы : 2 канала
Частота : 44,1 КГц
Метод сжатия : С потерями
Размер потока : 23,2 Мбайт (9%)
Выравнивание : Соединение по промежуткам
Продолжительность промежутка : 594 мс. (14,85 видеокадров)
Время предзагрузки промежутка : 208 мс.

Данные видео 2 Сезон
Видео
Идентификатор : 0
Формат : MPEG-4 Visual
Профиль формата : Advanced Simple@L5
Параметр BVOP формата : 2
Параметр QPel формата : Нет
Параметр GMC формата : Без точки перехода
Параметр матрицы формата : Default (H.263)
Идентификатор кодека : XVID
Идентификатор кодека/Подсказка : XviD
Продолжительность : 25 м.
Битрейт : 1202 Кбит/сек
Ширина : 640 пикселей
Высота : 480 пикселей
Соотношение сторон : 4:3
Частота кадров : 25,000 кадров/сек
Цветовое пространство : YUV
Субдискретизация насыщенности : 4:2:0
Битовая глубина : 8 бит
Тип развёртки : Прогрессивная
Метод сжатия : С потерями
Бит/(Пиксели*Кадры) : 0.156
Размер потока : 223 Мбайт (82%)
Библиотека кодирования : XviD 1.2.0SMP (UTC 2006-01-08)

Аудио #1
Идентификатор : 1
Формат : MPEG Audio
Версия формата : Version 1
Профиль формата : Layer 3
Идентификатор кодека : 55
Идентификатор кодека/Подсказка : MP3
Продолжительность : 25 м.
Вид битрейта : Постоянный
Битрейт : 128 Кбит/сек
Каналы : 1 канал
Частота : 48,0 КГц
Метод сжатия : С потерями
Размер потока : 23,7 Мбайт (9%)
Выравнивание : Соединение по промежуткам
Продолжительность промежутка : 594 мс. (14,85 видеокадров)
Время предзагрузки промежутка : 216 мс.
Заголовок : rus

Аудио #2
Идентификатор : 2
Формат : MPEG Audio
Версия формата : Version 1
Профиль формата : Layer 3
Идентификатор кодека : 55
Идентификатор кодека/Подсказка : MP3
Продолжительность : 25 м.
Вид битрейта : Постоянный
Битрейт : 128 Кбит/сек
Каналы : 2 канала
Частота : 48,0 КГц
Метод сжатия : С потерями
Размер потока : 23,7 Мбайт (9%)
Выравнивание : Соединение по промежуткам
Продолжительность промежутка : 594 мс. (14,85 видеокадров)
Время предзагрузки промежутка : 216 мс.

Данные видео 3 Сезон
Видео
Идентификатор : 0
Формат : MPEG-4 Visual
Профиль формата : Advanced Simple@L5
Параметр BVOP формата : 2
Параметр QPel формата : Нет
Параметр GMC формата : Без точки перехода
Параметр матрицы формата : Default (H.263)
Идентификатор кодека : XVID
Идентификатор кодека/Подсказка : XviD
Продолжительность : 29 м.
Битрейт : 1047 Кбит/сек
Ширина : 640 пикселей
Высота : 480 пикселей
Соотношение сторон : 4:3
Частота кадров : 25,000 кадров/сек
Цветовое пространство : YUV
Субдискретизация насыщенности : 4:2:0
Битовая глубина : 8 бит
Тип развёртки : Прогрессивная
Метод сжатия : С потерями
Бит/(Пиксели*Кадры) : 0.136
Размер потока : 219 Мбайт (80%)
Библиотека кодирования : XviD 1.2.0SMP (UTC 2006-01-08)

Аудио #1
Идентификатор : 1
Формат : MPEG Audio
Версия формата : Version 1
Профиль формата : Layer 3
Идентификатор кодека : 55
Идентификатор кодека/Подсказка : MP3
Продолжительность : 29 м.
Вид битрейта : Постоянный
Битрейт : 128 Кбит/сек
Каналы : 1 канал
Частота : 48,0 КГц
Метод сжатия : С потерями
Размер потока : 26,8 Мбайт (10%)
Выравнивание : Соединение по промежуткам
Продолжительность промежутка : 660 мс. (16,50 видеокадров)
Время предзагрузки промежутка : 216 мс.
Заголовок : rus

Аудио #2
Идентификатор : 2
Формат : MPEG Audio
Версия формата : Version 1
Профиль формата : Layer 3
Идентификатор кодека : 55
Идентификатор кодека/Подсказка : MP3
Продолжительность : 29 м.
Вид битрейта : Постоянный
Битрейт : 128 Кбит/сек
Каналы : 2 канала
Частота : 48,0 КГц
Метод сжатия : С потерями
Размер потока : 26,8 Мбайт (10%)
Выравнивание : Соединение по промежуткам
Продолжительность промежутка : 660 мс. (16,51 видеокадров)
Время предзагрузки промежутка : 216 мс.

Данные видео 4 Сезон
Видео
Идентификатор : 0
Формат : MPEG-4 Visual
Профиль формата : Advanced Simple@L5
Параметр BVOP формата : 2
Параметр QPel формата : Нет
Параметр GMC формата : Без точки перехода
Параметр матрицы формата : Default (H.263)
Идентификатор кодека : XVID
Идентификатор кодека/Подсказка : XviD
Продолжительность : 31 м.
Битрейт : 975 Кбит/сек
Ширина : 640 пикселей
Высота : 480 пикселей
Соотношение сторон : 4:3
Частота кадров : 25,000 кадров/сек
Цветовое пространство : YUV
Субдискретизация насыщенности : 4:2:0
Битовая глубина : 8 бит
Тип развёртки : Прогрессивная
Метод сжатия : С потерями
Бит/(Пиксели*Кадры) : 0.127
Размер потока : 217 Мбайт (78%)
Библиотека кодирования : XviD 1.2.0SMP (UTC 2006-01-08)

Аудио #1
Идентификатор : 1
Формат : MPEG Audio
Версия формата : Version 1
Профиль формата : Layer 3
Идентификатор кодека : 55
Идентификатор кодека/Подсказка : MP3
Продолжительность : 31 м.
Вид битрейта : Постоянный
Битрейт : 128 Кбит/сек
Каналы : 1 канал
Частота : 48,0 КГц
Метод сжатия : С потерями
Размер потока : 28,5 Мбайт (10%)
Выравнивание : Соединение по промежуткам
Продолжительность промежутка : 24 мс. (0,60 видеокадр)
Время предзагрузки промежутка : 192 мс.
Заголовок : 4-02

Аудио #2
Идентификатор : 2
Формат : MPEG Audio
Версия формата : Version 1
Профиль формата : Layer 3
Идентификатор кодека : 55
Идентификатор кодека/Подсказка : MP3
Продолжительность : 31 м.
Вид битрейта : Постоянный
Битрейт : 128 Кбит/сек
Каналы : 2 канала
Частота : 48,0 КГц
Метод сжатия : С потерями
Размер потока : 28,5 Мбайт (10%)
Выравнивание : Соединение по промежуткам
Продолжительность промежутка : 24 мс. (0,60 видеокадр)
Время предзагрузки промежутка : 192 мс.

Данные видео 5 Сезон
Видео
Идентификатор : 0
Формат : MPEG-4 Visual
Профиль формата : Advanced Simple@L5
Параметр BVOP формата : 2
Параметр QPel формата : Нет
Параметр GMC формата : Без точки перехода
Параметр матрицы формата : Default (H.263)
Идентификатор кодека : XVID
Идентификатор кодека/Подсказка : XviD
Продолжительность : 30 м.
Битрейт : 1199 Кбит/сек
Ширина : 640 пикселей
Высота : 480 пикселей
Соотношение сторон : 4:3
Частота кадров : 25,000 кадров/сек
Цветовое пространство : YUV
Субдискретизация насыщенности : 4:2:0
Битовая глубина : 8 бит
Тип развёртки : Прогрессивная
Метод сжатия : С потерями
Бит/(Пиксели*Кадры) : 0.156
Размер потока : 262 Мбайт (82%)
Библиотека кодирования : XviD 1.2.1 (UTC 2008-12-04)

Аудио #1
Идентификатор : 1
Формат : MPEG Audio
Версия формата : Version 1
Профиль формата : Layer 3
Режим : Joint stereo
Расширение режима : MS Stereo
Идентификатор кодека : 55
Идентификатор кодека/Подсказка : MP3
Продолжительность : 30 м.
Вид битрейта : Постоянный
Битрейт : 128 Кбит/сек
Каналы : 2 канала
Частота : 44,1 КГц
Метод сжатия : С потерями
Размер потока : 27,9 Мбайт (9%)
Выравнивание : Соединение по промежуткам
Продолжительность промежутка : 594 мс. (14,86 видеокадров)
Время предзагрузки промежутка : 209 мс.
Заголовок : rus

Аудио #2
Идентификатор : 2
Формат : MPEG Audio
Версия формата : Version 1
Профиль формата : Layer 3
Режим : Joint stereo
Расширение режима : MS Stereo
Идентификатор кодека : 55
Идентификатор кодека/Подсказка : MP3
Продолжительность : 30 м.
Вид битрейта : Постоянный
Битрейт : 128 Кбит/сек
Каналы : 2 канала
Частота : 44,1 КГц
Метод сжатия : С потерями
Размер потока : 27,6 Мбайт (9%)
Выравнивание : Соединение по промежуткам
Продолжительность промежутка : 601 мс. (15,04 видеокадров)
Время предзагрузки промежутка : 209 мс.
Заголовок : spa

Перевод: профессиональный многоголосый закадровый

Если у вас возникли проблемы с закачкой Дежурная аптека / Farmacia de Guardia [S01-05 из 05] (1991-1995) SATRip, перейдите по ссылке - там вы найдете решение своей проблемы.

Категория: Зарубежные сериалы

 

Скачать Дежурная аптека / Farmacia de Guardia [S01-05 из 05] (1991-1995) SATRip бесплатно без регистрации

 

Информация
Посетители, находящиеся в группе Гости, не могут оставлять комментарии к данной публикации.
 
 
Скачать Дежурная аптека / Farmacia de Guardia [S01-05 из 05] (1991-1995) SATRip бесплатно без регистрацииCopyright © 2019 .