Скачать Из прошлого / Out of the Past (1947) BDRip 720p от NNNB | P, A бесплатно без регистрации




Продолжительность: 01:36:46
Аудио 2: AC-3, 192 Кбит/сек, 2 канала(ов), 48,0 КГц - Одноголосый закадровый, П.Карцев / Русский
Форсированные субтитры: Нет
Год выхода: 1947
Русское название: Из прошлого
Жанр: фильм-нуар, триллер, драма
В ролях: Роберт Митчум, Джейн Грир, Кирк Дуглас, Ронда Флеминг, Ричард Уэбб, Стив Броди, Вирджиния Хьюстон, Пол Валентайн, Дики Мур, Кен Нилс

Чаптеры (Главы): Есть



Группа:

Скриншоты




MediaInfoFormat : Matroska
Format version : Version 2
File size : 6.77 GiB
Duration : 1 h 36 min
Overall bit rate : 10.0 Mb/s
Movie name : Out of the Past.(1947).BDRip.720p.[envy]
Encoded date : UTC 2017-08-22 13:38:38
Writing application : mkvmerge v5.8.0 ('No Sleep / Pillow') built on Sep 2 2012 15:37:04
Writing library : libebml v1.2.3 + libmatroska v1.3.0

Video
ID : 1
Format : AVC
Format/Info : Advanced Video Codec
Format profile : High@L4.1
Format settings, CABAC : Yes
Format settings, RefFrames : 9 frames
Codec ID : V_MPEG4/ISO/AVC
Duration : 1 h 36 min
Bit rate : 9 440 kb/s
Width : 986 pixels
Height : 720 pixels
Display aspect ratio : 4:3
Frame rate mode : Constant
Frame rate : 23.976 (24000/1001) FPS
Color space : YUV
Chroma subsampling : 4:2:0
Bit depth : 8 bits
Scan type : Progressive
Bits/(Pixel*Frame) : 0.555
Stream size : 6.25 GiB (92%)
Title : Out of the Past.(1947).BDRip.720p.[envy]
Writing library : x264 core 148 r2744 b97ae06
Encoding settings : cabac=1 / ref=9 / deblock=1:-3:-3 / analyse=0x3:0x113 / me=umh / subme=11 / psy=1 / psy_rd=1.00:0.09 / mixed_ref=1 / me_range=32 / chroma_me=1 / trellis=2 / 8x8dct=1 / cqm=0 / deadzone=21,11 / fast_pskip=0 / chroma_qp_offset=-3 / threads=12 / lookahead_threads=1 / sliced_threads=0 / nr=0 / decimate=1 / interlaced=0 / bluray_compat=0 / constrained_intra=0 / bframes=5 / b_pyramid=2 / b_adapt=2 / b_bias=0 / direct=3 / weightb=1 / open_gop=0 / weightp=2 / keyint=240 / keyint_min=23 / scenecut=40 / intra_refresh=0 / rc=2pass / mbtree=0 / bitrate=9440 / ratetol=1.0 / qcomp=0.60 / qpmin=0 / qpmax=69 / qpstep=4 / cplxblur=20.0 / qblur=0.5 / ip_ratio=1.40 / pb_ratio=1.30 / aq=1:0.70
Language : English
Default : Yes
Forced : No

Audio #1
ID : 2
Format : AC-3
Format/Info : Audio Coding 3
Format settings, Endianness : Big
Codec ID : A_AC3
Duration : 1 h 36 min
Bit rate mode : Constant
Bit rate : 192 kb/s
Channel(s) : 2 channels
Channel positions : Front: L R
Sampling rate : 48.0 kHz
Frame rate : 31.250 FPS (1536 SPF)
Bit depth : 16 bits
Compression mode : Lossy
Stream size : 133 MiB (2%)
Title : MVO SomeWax
Language : Russian
Service kind : Complete Main
Default : Yes
Forced : No

Audio #2
ID : 3
Format : AC-3
Format/Info : Audio Coding 3
Format settings, Endianness : Big
Codec ID : A_AC3
Duration : 1 h 36 min
Bit rate mode : Constant
Bit rate : 192 kb/s
Channel(s) : 2 channels
Channel positions : Front: L R
Sampling rate : 48.0 kHz
Frame rate : 31.250 FPS (1536 SPF)
Bit depth : 16 bits
Compression mode : Lossy
Stream size : 133 MiB (2%)
Title : П.Карцев
Language : Russian
Service kind : Complete Main
Default : No
Forced : No

Audio #3
ID : 4
Format : AC-3
Format/Info : Audio Coding 3
Format settings, Endianness : Big
Codec ID : A_AC3
Duration : 1 h 36 min
Bit rate mode : Constant
Bit rate : 192 kb/s
Channel(s) : 2 channels
Channel positions : Front: L R
Sampling rate : 48.0 kHz
Frame rate : 31.250 FPS (1536 SPF)
Bit depth : 16 bits
Compression mode : Lossy
Stream size : 133 MiB (2%)
Title : Eng
Language : Russian
Service kind : Complete Main
Default : No
Forced : No

Text #1
ID : 5
Format : UTF-8
Codec ID : S_TEXT/UTF8
Codec ID/Info : UTF-8 Plain Text
Title : Rus full
Language : Russian
Default : No
Forced : No

Text #2
ID : 6
Format : UTF-8
Codec ID : S_TEXT/UTF8
Codec ID/Info : UTF-8 Plain Text
Title : Eng full
Language : English
Default : No
Forced : No

Menu
00:00:00.000 : :Chapter 01
00:01:29.171 : :Chapter 02
00:04:49.288 : :Chapter 03
00:07:15.518 : :Chapter 04
00:09:42.957 : :Chapter 05
00:14:59.480 : :Chapter 06
00:18:33.444 : :Chapter 07
00:22:17.502 : :Chapter 08
00:28:29.916 : :Chapter 09
00:33:32.426 : :Chapter 10
00:39:34.121 : :Chapter 11
00:45:19.841 : :Chapter 12
00:47:08.116 : :Chapter 13
00:49:52.863 : :Chapter 14
00:54:19.339 : :Chapter 15
00:58:11.988 : :Chapter 16
01:04:09.428 : :Chapter 17
01:08:04.413 : :Chapter 18
01:12:45.943 : :Chapter 19
01:15:42.329 : :Chapter 20
01:18:46.470 : :Chapter 21
01:22:35.742 : :Chapter 22
01:24:45.455 : :Chapter 23
01:28:39.981 : :Chapter 24
01:31:31.318 : :Chapter 25
01:35:09.370 : :Chapter 26


ЗалилАвтор Рипа: Оригинальное название: Out of the Past
Сюжет фильма
Гангстер по имени Вит Стерлинг нанимает бывшего частного детектива Джефа для розыска некой Кэтти Моффат. Она подстрелила человека из банды Вита и, прикарманив 40.000 долларов, ударилась в бега. Джеф берётся за дело, но, отыскав девушку, влюбляется в неё...

Видео: 986x720, 9440 Кбит/сек, 23,976 кадр/сек, AVC, x264, High@L4.1, 4:3, 0.555 Бит/[Пиксели*Кадры]
Выпущено: США
Аудио 3: AC-3, 192 Кбит/сек, 2 канала(ов), 48,0 КГц - Оригинал / Английский
Контейнер: MKV (расширение файла)
envy. Оценка10 из 10 (3 голосов, самая низкая оценка - 10, самая высокая - 10) КатегорияЗарубежные фильмы Раздают2 Качают0 Сидер замечен11-07-2019 9:19:12 (4 минуты назад) Добавлен23-08-2017 17:50:29 (23 месяца назад) Размер6.77 GB (7269366242 Bytes)Файл
Субтитры: Русские | Полные, Английские | Полные
Перевод: Профессиональный (многоголосый, закадровый), Авторский (одноголосый, закадровый)
Аудио 1: AC-3, 192 Кбит/сек, 2 канала(ов), 48,0 КГц - Многоголосый закадровый, SomeWax / Русский
Режиссер: Жак Турнёр
Качество: BDRip 720p (исходник Blu-Ray Disc Remux 1080p)
Информация о фильме

Если у вас возникли проблемы с закачкой Из прошлого / Out of the Past (1947) BDRip 720p от NNNB | P, A, перейдите по ссылке - там вы найдете решение своей проблемы.

Категория: Зарубежные фильмы

 

Скачать Из прошлого / Out of the Past (1947) BDRip 720p от NNNB | P, A бесплатно без регистрации

 

Информация
Посетители, находящиеся в группе Гости, не могут оставлять комментарии к данной публикации.
 
 
Скачать Из прошлого / Out of the Past (1947) BDRip 720p от NNNB | P, A бесплатно без регистрацииCopyright © 2019 .