Скачать Квант милосердия / Quantum of Solace (2008) BDRemux 1080p от ivandubskoj | D, A бесплатно без регистрации






Информация о фильме
Режиссёр: Марк Форстер
Автор ремукса - ivandubskoj ЗалилПродолжительность: 01:46:14
Жанр: Боевик, триллер, приключения, экранизация
Оригинальное название: James Bond 007: Quantum of Solace
Видео: MPEG-4 AVC, 28.3 Мбит/с, 1920х1080 (16:9), 23.976 кадр/с
Аудио #1: Русский, DTS, 48000 Гц, 768 Кбит/с, 6 каналов (5.1) - Дубляж (BD CEE)
В ролях: Дэниэл Крэйг, Ольга Куриленко, Матьё Амальрик, Джуди Денч, Джанкарло Джаннини, Джемма Артертон, Джеффри Райт, Дэвид Харбор, Джеспер Кристенсен, Анатоль Таубман, Рори Киннер, Тим Пиготт-Смит, Хоакин Косио, Фернандо Гильен Куэрво, Хесус Очоа, Лукреция Ланте Делла Ровере, Гленн Фостер, Пол Риттер, Саймон Кассианидес, Стана Катик, Нил Джексон, Уна Чаплин, Брендан О'Хиа, Кэри Патрис Коли, Сара Хэдлэнд, Марк Вейкинг, Карин Ланц, Кристиан Хеллер, Рэйчел МакДауэлл, Раффаэлло Дегруттола

Аудио #2: Русский, Dolby AC3, 48000 Гц, 448 Кбит/с, 6 каналов (5.1) - Авторский одноголосый (Ю. Сербин)
Страна: США, Великобритания
ivandubskoj ОценкаНикто ещё не поставил оценку КатегорияЗарубежные фильмы Раздают0 Качают0 Сидер замечен10-07-2019 22:19:13 (7 часов назад) Добавлен17-07-2014 13:51:21 (61 месяц назад) Размер25.27 GB (27133916306 Bytes)О фильме:
Действие фильма "Квант милосердия" начинается буквально через час после финальных событий предыдущего, "Казино Рояль". Бонд вне себя от ярости, вызванной предательством любимой женщины. Тем более, что она была ещё и его коллегой по Секретной Службе. Однако агент 007 в нём всё же берёт верх над оскорблёнными гордостью и доверием. Тем более, что предательство закралось гораздо глубже, чем кажется на первый взгляд - двойным агентом оказывается даже личный телохранитель самого шефа Службы, а преступная организация, шантажировавшая Веспер, подругу Бонда - сильна и организована настолько, что способна сломить и подчинить едва ли не кого угодно. Но если она при этом перешла дорогу лично Джеймсу Бонду - то тем хуже для неё... Он сумеет и узнать, что за чередою всех прежних предательств и новых преступлений стоит амбициозный бизнесмен Доминик Грин, и найти себе сильного помошника, несмотря на то, что это представительница слабого пола, ищущая совсем другого человека, и всё время опережать на шаг в этой опасной охоте всех без исключения - от собственного начальства до могущественного ЦРУ. Пока Грин затевает с недалёким и беспринципным генералом Медрано государственный переворот в Боливии, а сам генерал даже не догадывается, какими выгодами это обернётся для самого Грина - Бонд и его боевая подруга Камилла неуклонно приближаются к цели, которая у них обоих, по большому счёту, одна на двоих - возмездие.



Аудио #3: Русский, Dolby AC3, 48000 Гц, 448 Кбит/с, 6 каналов (5.1) - Авторский одноголосый (А. Гаврилов)
Перевод: Дублированный (BD CEE), дублированный (украинский), авторский одноголосый (Ю. Сербин), авторский одноголосый (А. Гаврилов)
Качество: BDRemux 1080p [Исходник: Blu-ray CEE 1080p AVC DTS 5.1]
Субтитры: Русские, украинские, английские (Полные, форсированные, SRT)

MediaInfo
General
Unique ID : 254855825259204156636529109899986433384 (0xBFBB72503CB7E09CA2E234B75DC57568)
Complete name : Quantum.of.Solace.2008.BDRemux.1080p.mkv
Format : Matroska
File size : 25.3 GiB
Duration : 1h 46mn
Overall bit rate : 34.1 Mbps
Movie name : Квант милосердия / Quantum of Solace (2008) Blu-Ray Remux (1080p)
Encoded date : UTC 2014-07-17 08:22:21
Writing application : mkvmerge v6.1.0 ('Old Devil') built on Mar 4 2013 09:10:42
Writing library : libebml v1.3.0 + libmatroska v1.4.0

Video
ID : 1
Format : AVC
Format/Info : Advanced Video Codec
Format profile : High@L4.1
Format settings, CABAC : Yes
Format settings, ReFrames : 4 frames
Codec ID : V_MPEG4/ISO/AVC
Duration : 1h 46mn
Bit rate mode : Variable
Bit rate : 28.3 Mbps
Maximum bit rate : 36.0 Mbps
Width : 1 920 pixels
Height : 1 080 pixels
Display aspect ratio : 16:9
Frame rate : 23.976 fps
Color space : YUV
Chroma subsampling : 4:2:0
Bit depth : 8 bits
Scan type : Progressive
Bits/(Pixel*Frame) : 0.568
Stream size : 21.0 GiB (83%)
Title : Quantum of Solace (2008)
Language : English
Color primaries : BT.709-5, BT.1361, IEC 61966-2-4, SMPTE RP177
Transfer characteristics : BT.709-5, BT.1361
Matrix coefficients : BT.709-5, BT.1361, IEC 61966-2-4 709, SMPTE RP177

Audio #1
ID : 2
Format : DTS
Format/Info : Digital Theater Systems
Codec ID : A_DTS
Duration : 1h 46mn
Bit rate mode : Constant
Bit rate : 755 Kbps
Channel(s) : 6 channels
Channel positions : Front: L C R, Side: L R, LFE
Sampling rate : 48.0 KHz
Bit depth : 24 bits
Compression mode : Lossy
Stream size : 573 MiB (2%)
Title : DUB [BD CEE]
Language : Russian

Audio #2
ID : 3
Format : AC-3
Format/Info : Audio Coding 3
Mode extension : CM (complete main)
Codec ID : A_AC3
Duration : 1h 46mn
Bit rate mode : Constant
Bit rate : 448 Kbps
Channel(s) : 6 channels
Channel positions : Front: L C R, Side: L R, LFE
Sampling rate : 48.0 KHz
Bit depth : 16 bits
Compression mode : Lossy
Stream size : 340 MiB (1%)
Title : AVO [Ю. Сербин]
Language : Russian

Audio #3
ID : 4
Format : AC-3
Format/Info : Audio Coding 3
Mode extension : CM (complete main)
Codec ID : A_AC3
Duration : 1h 46mn
Bit rate mode : Constant
Bit rate : 448 Kbps
Channel(s) : 6 channels
Channel positions : Front: L C R, Side: L R, LFE
Sampling rate : 48.0 KHz
Bit depth : 16 bits
Compression mode : Lossy
Stream size : 340 MiB (1%)
Title : AVO [А. Гаврилов]
Language : Russian

Audio #4
ID : 5
Format : AC-3
Format/Info : Audio Coding 3
Mode extension : CM (complete main)
Codec ID : A_AC3
Duration : 1h 46mn
Bit rate mode : Constant
Bit rate : 448 Kbps
Channel(s) : 6 channels
Channel positions : Front: L C R, Side: L R, LFE
Sampling rate : 48.0 KHz
Bit depth : 16 bits
Compression mode : Lossy
Stream size : 340 MiB (1%)
Title : DUB [BD CEE]
Language : Ukrainian

Audio #5
ID : 6
Format : DTS
Format/Info : Digital Theater Systems
Format profile : HRA / Core
Codec ID : A_DTS
Duration : 1h 46mn
Bit rate mode : Constant
Bit rate : 3 019 Kbps / 1 510 Kbps
Channel(s) : 6 channels
Channel positions : Front: L C R, Side: L R, LFE
Sampling rate : 48.0 KHz
Bit depth : 24 bits
Compression mode : Lossy
Stream size : 2.24 GiB (9%)
Title : Original [BD CEE]
Language : English

Text #1
ID : 7
Format : UTF-8
Codec ID : S_TEXT/UTF8
Codec ID/Info : UTF-8 Plain Text
Title : Full
Language : Russian

Text #2
ID : 8
Format : UTF-8
Codec ID : S_TEXT/UTF8
Codec ID/Info : UTF-8 Plain Text
Title : Forced
Language : Russian

Text #3
ID : 9
Format : UTF-8
Codec ID : S_TEXT/UTF8
Codec ID/Info : UTF-8 Plain Text
Title : Full
Language : Ukrainian

Text #4
ID : 10
Format : UTF-8
Codec ID : S_TEXT/UTF8
Codec ID/Info : UTF-8 Plain Text
Title : Forced
Language : Ukrainian

Text #5
ID : 11
Format : UTF-8
Codec ID : S_TEXT/UTF8
Codec ID/Info : UTF-8 Plain Text
Title : Full
Language : English

Menu
00:00:00.000 : en:Chapter 0
00:04:10.124 : en:Chapter 0
00:07:27.530 : en:Chapter 0
00:10:20.536 : en:Chapter 0
00:15:16.832 : en:Chapter 0
00:17:47.649 : en:Chapter 0
00:20:24.306 : en:Chapter 0
00:22:51.370 : en:Chapter 0
00:26:28.420 : en:Chapter 0
00:29:06.369 : en:Chapter 0
00:33:16.911 : en:Chapter 0
00:35:48.104 : en:Chapter 0
00:39:02.131 : en:Chapter 0
00:44:19.156 : en:Chapter 0
00:47:21.797 : en:Chapter 0
00:52:30.897 : en:Chapter 0
00:56:29.010 : en:Chapter 0
01:01:17.173 : en:Chapter 0
01:04:51.012 : en:Chapter 0
01:11:04.802 : en:Chapter 0
01:12:34.433 : en:Chapter 0
01:17:16.423 : en:Chapter 0
01:21:05.694 : en:Chapter 0
01:24:17.719 : en:Chapter 0
01:29:19.937 : en:Chapter 0
01:36:15.519 : en:Chapter 0
01:37:59.248 : en:Chapter 0
01:41:39.134 : en:Chapter 0
01:46:14.117 : en:Chapter 0
Скриншоты


Аудио #5: Английский, DTS-HD HR, 48000 Гц, 3019 Кбит/с, 6 каналов (5.1) - Оригинал (BD CEE)
Название: Джеймс Бонд 007: Квант милосердия
Оригинальная аудио-дорожка: Английская

Кодек: MPEG-4 AVC
Аудио #4: Украинский, Dolby AC3, 48000 Гц, 448 Кбит/с, 6 каналов (5.1) - Дубляж (BD CEE)
Студия: Columbia Pictures, Danjaq Productions, Eon Productions Ltd., Metro-Goldwyn-Mayer (MGM)
Год выхода: 2008

Если у вас возникли проблемы с закачкой Квант милосердия / Quantum of Solace (2008) BDRemux 1080p от ivandubskoj | D, A, перейдите по ссылке - там вы найдете решение своей проблемы.

Категория: Зарубежные фильмы

 

Скачать Квант милосердия / Quantum of Solace (2008) BDRemux 1080p от ivandubskoj | D, A бесплатно без регистрации

 

Информация
Посетители, находящиеся в группе Гости, не могут оставлять комментарии к данной публикации.
 
 
Скачать Квант милосердия / Quantum of Solace (2008) BDRemux 1080p от ivandubskoj | D, A бесплатно без регистрацииCopyright © 2019 .