Скачать Jean-Michel Jarre - Electronica 1: The Time Machine (2015) AAC от BestSound ExKinoRay | iTunes бесплатно без регистрации






Релиз от:



01. Jean-Michel Jarre & Boys Noize - The Time Machine (3:52)
02. Jean-Michel Jarre & M83 - Glory (3:56)
03. Jean-Michel Jarre & Air - Close Your Eyes (6:25)
04. Jean-Michel Jarre & Vince Clarke - Automatic, Pt. 1 (3:09)
05. Jean-Michel Jarre & Vince Clarke - Automatic, Pt. 2 (2:59)
06. Jean-Michel Jarre & Little Boots - If..! (2:58)
07. Jean-Michel Jarre & Fuck Buttons - Immortals (4:30)
08. Jean-Michel Jarre & Moby - Suns Have Gone (5:47)
09. Jean-Michel Jarre & Gesaffelstein - Conquistador (3:07)
10. Jean-Michel Jarre & Pete Townshend - Travelator, Pt. 2 (3:06)
11. Jean-Michel Jarre & Tangerine Dream - Zero Gravity (6:46)
12. Jean-Michel Jarre & Laurie Anderson - Rely on Me (2:57)
13. Jean-Michel Jarre & Armin van Buuren - Stardust (4:36)
14. Jean-Michel Jarre & 3D (Massive Attack) - Watching You (4:06)
15. Jean-Michel Jarre & John Carpenter - A Question of Blood (3:00)
16. Jean-Michel Jarre & Lang Lang - The Train & the River (7:14)
17. Jean-Michel Jarre & M83 - Glory (3:07) [VIDEO]
18. Jean-Michel Jarre & Little Boots - If..! (2:59) [VIDEO]


Исполнитель: Jean-Michel Jarre
Жанр: Electronic, New-Age, Synthpop
Название: Electronica 1: The Time Machine
Дополнительная информация:
Electronica 1: The Time Machine — семнадцатый студийный альбом французского композитора и исполнителя электронной музыки Жана-Мишеля Жарра. Выпущен 16 октября 2015 года лейблом Columbia Records. Он был записан в сотрудничестве с 15 музыкантами, включая Винса Кларка, Gesaffelstein, M83, Армина Ван Бюрена, Джона Карпентера, Роберта «3D» Дель Ная из группы Massive Attack, Пита Таунсенда (из группы The Who) и ныне покойного Эдгара Фрёзе из группы Tangerine Dream. Совместная работа с Жарром была одним из последних проектов Фрёзе перед его смертью в январе 2015 года. 20 апреля 2015 года Жарр анонсировал трек «Conquistador», ставший результатом его совместной работы с французским техно продюсером Gesaffelstein. Вторая совместная работа, на этот раз с французской электронной группой M83 под названием «Glory» была анонсирована 15 мая 2015 года. Видеоклип к этой композиции был выпущен 23 июня 2015 года. Третья совместная работа с немецкой электронной группой Tangerine Dream была анонсирована 22 июня 2015 года. Эти совместные работы рекламировались несколько месяцев в 2015 году, после чего 10 июля 2015 года Жарром был объявлен сам альбом под рабочим названием «E-project». Это был его первый альбом с новой музыкой после альбома 2007 года Téo & Téa. Альбом стал доступен для предварительного заказа, также были объявлены два набора дисков с ограниченным тиражом. 28 августа 2015 года были объявлены подробности о новом альбоме и его название Electronica 1: The Time Machine. Одновременно была анонсирована совместная работа с Литл Бутс под названием «If..!». В видеоролике, сопровождающем анонс Жан-Мишель Жарр рассказывает об идее этого альбома и о том, как все его фрагменты собрались воедино. В мае 2016 года была выпущена вторая часть альбома.


ЗалилЛицензия
Media InfoGeneral
Complete name : C:UsersDesktop2-17 Glory.m4v
Format : MPEG-4
Codec ID : M4V (M4V /mp42/isom)
File size : 41.1 MiB
Duration : 3 min 7 s
Overall bit rate mode : Variable
Overall bit rate : 1 839 kb/s
Movie name : Glory
Album : Electronica 1: The Time Machine
Album/Sorted by : Electronica 1: The Time Machine
Album/Performer : Jean-Michel Jarre
Part/Position : 2
Part/Total : 2
Track name/Position : 17
Track name/Total : 18
Performer : Jean-Michel Jarre & M83
Performer/Sorted by : Jean-Michel Jarre & M83
Genre : Dance
ContentType : Music Video
Recorded date : UTC 2015-10-16 07:00:00
Encoded date : UTC 2015-09-29 17:42:45
Tagged date : UTC 2015-09-29 17:42:45
Copyright : © 2015 Music Affair Entertainment Ltd. under exclusive license to Sony Music Entertainment Germany GmbH / Ultra Records, LLC
Cover : Yes
Rating : None
AppleStoreAccount : ordv93818@163.com
ownr : Tony Sammy
AppleStoreCatalogID : 1017123967
AlbumTitleID : 165762951
PlayListID : 1017123793
GenreID : 1617
AppleStoreCountry : United States
PurchaseDate : 2015-10-17 04:09:45
Title/Sort : Glory
Vendor : Ultra:vendor_id:0617465637858_UK9LA1401703
Flavour : 6:640x480LC-256
ContentRating : ||0|

Video
ID : 1
Format : AVC
Format/Info : Advanced Video Codec
Format profile : Baseline@L3
Format settings : 1 Ref Frames
Format settings, CABAC : No
Format settings, RefFrames : 1 frame
Codec ID : avc1
Codec ID/Info : Advanced Video Coding
Duration : 3 min 7 s
Bit rate : 1 531 kb/s
Width : 640 pixels
Height : 354 pixels
Display aspect ratio : 2.40:1
Frame rate mode : Constant
Frame rate : 25.000 FPS
Color space : YUV
Chroma subsampling : 4:2:0
Bit depth : 8 bits
Scan type : Progressive
Bits/(Pixel*Frame) : 0.270
Stream size : 34.2 MiB (83%)
Title : Core Media Video
Language : English
Encoded date : UTC 2015-09-29 17:42:45
Tagged date : UTC 2015-09-29 17:42:45
Color range : Limited
Color primaries : BT.601 NTSC
Transfer characteristics : BT.709
Matrix coefficients : BT.601

Audio
ID : 2
Format : AAC
Format/Info : Advanced Audio Codec
Format profile : LC
Codec ID : mp4a-40-2
Duration : 3 min 7 s
Source duration : 3 min 7 s
Bit rate mode : Variable
Bit rate : 256 kb/s
Maximum bit rate : 398 kb/s
Channel(s) : 2 channels
Channel positions : Front: L R
Sampling rate : 48.0 kHz
Frame rate : 46.875 FPS (1024 SPF)
Compression mode : Lossy
Stream size : 5.74 MiB (14%)
Source stream size : 5.74 MiB (14%)
Title : Core Media Audio
Language : English
Encoded date : UTC 2015-09-29 17:42:45
Tagged date : UTC 2015-09-29 17:42:45


General
Complete name : C:UsersDesktop2-18 If..!.m4v
Format : MPEG-4
Codec ID : M4V (M4V /mp42/isom)
File size : 38.7 MiB
Duration : 2 min 59 s
Overall bit rate mode : Variable
Overall bit rate : 1 811 kb/s
Movie name : If..!
Album : Electronica 1: The Time Machine
Album/Sorted by : Electronica 1: The Time Machine
Album/Performer : Jean-Michel Jarre
Part/Position : 2
Part/Total : 2
Track name/Position : 18
Track name/Total : 18
Performer : Jean-Michel Jarre & Little Boots
Performer/Sorted by : Jean-Michel Jarre & Little Boots
Genre : Dance
ContentType : Music Video
Recorded date : UTC 2015-10-16 07:00:00
Encoded date : UTC 2015-09-29 17:45:47
Tagged date : UTC 2015-09-29 17:45:47
Copyright : © 2015 Music Affair Entertainment Ltd. under exclusive license to Sony Music Entertainment Germany GmbH / Ultra Records, LLC
Cover : Yes
Rating : None
AppleStoreAccount : ordv93818@163.com
ownr : Tony Sammy
AppleStoreCatalogID : 1017123968
AlbumTitleID : 165762951
PlayListID : 1017123793
GenreID : 1617
AppleStoreCountry : United States
PurchaseDate : 2015-10-17 04:09:45
Title/Sort : If..!
Vendor : Ultra:vendor_id:0617465637858_UK9LA1401106
Flavour : 6:640x480LC-256
ContentRating : ||0|

Video
ID : 1
Format : AVC
Format/Info : Advanced Video Codec
Format profile : Baseline@L3
Format settings : 1 Ref Frames
Format settings, CABAC : No
Format settings, RefFrames : 1 frame
Codec ID : avc1
Codec ID/Info : Advanced Video Coding
Duration : 2 min 59 s
Bit rate : 1 506 kb/s
Width : 640 pixels
Height : 356 pixels
Display aspect ratio : 2.40:1
Frame rate mode : Constant
Frame rate : 25.000 FPS
Color space : YUV
Chroma subsampling : 4:2:0
Bit depth : 8 bits
Scan type : Progressive
Bits/(Pixel*Frame) : 0.264
Stream size : 32.2 MiB (83%)
Title : Core Media Video
Language : English
Encoded date : UTC 2015-09-29 17:45:47
Tagged date : UTC 2015-09-29 17:45:47
Color range : Limited
Color primaries : BT.601 NTSC
Transfer characteristics : BT.709
Matrix coefficients : BT.601

Audio
ID : 2
Format : AAC
Format/Info : Advanced Audio Codec
Format profile : LC
Codec ID : mp4a-40-2
Duration : 2 min 59 s
Source duration : 2 min 59 s
Bit rate mode : Variable
Bit rate : 256 kb/s
Maximum bit rate : 377 kb/s
Channel(s) : 2 channels
Channel positions : Front: L R
Sampling rate : 48.0 kHz
Frame rate : 46.875 FPS (1024 SPF)
Compression mode : Lossy
Stream size : 5.40 MiB (14%)
Source stream size : 5.40 MiB (14%)
Title : Core Media Audio
Language : English
Encoded date : UTC 2015-09-29 17:45:47
Tagged date : UTC 2015-09-29 17:45:47
Год: 2015
℗ 2015 Music Affair Entertainment Ltd.
under exclusive license to Sony Music Entertainment Germany GmbH


Страна: France
Официальный сайт
Продолжительность: 01:14:34
Формат/Кодек: AAC
EpiLog ОценкаНикто ещё не поставил оценку КатегорияМузыка Раздают1 Качают0 Сидер замечен10-07-2019 22:19:13 (5 часов назад) Добавлен30-09-2017 20:44:45 (22 месяца назад) Размер222.76 MB (233584622 Bytes)Битрейт аудио: 256 kbps

Если у вас возникли проблемы с закачкой Jean-Michel Jarre - Electronica 1: The Time Machine (2015) AAC от BestSound ExKinoRay | iTunes, перейдите по ссылке - там вы найдете решение своей проблемы.

Категория: Музыка

 

Скачать Jean-Michel Jarre - Electronica 1: The Time Machine (2015) AAC от BestSound ExKinoRay | iTunes бесплатно без регистрации

 

Информация
Посетители, находящиеся в группе Гости, не могут оставлять комментарии к данной публикации.
 
 
Скачать Jean-Michel Jarre - Electronica 1: The Time Machine (2015) AAC от BestSound ExKinoRay | iTunes бесплатно без регистрацииCopyright © 2019 .