Скачать 2 дня в Нью-Йорке / 2 Days in New York (2012) HDRip-AVC от New-Team бесплатно без регистрации





В ролях:
Крис Рок, Жюли Дельпи, Альберт Дельпи, Алексия Ландо, Александр Наон, Кейт Бёртон, Дилан Бейкер, Даниэль Брюль, Тален Рут Райли, Оуэн Шипман...

Аудио: 48 kHz, Dolby AC3 5.1, 448 kbps Английский

Описание:
Марион, теперь счастливо живущая с Мингусом в их нью-йоркской квартире, нашла все, что ей было так необходимо, отношения, свой дом, успешную карьеру и себя саму в опасности, когда ее отец, сестра и экс-бойфренд решили к ним заглянуть из Франции…



AVPStudio ОценкаНикто ещё не поставил оценку КатегорияЗарубежные фильмы Раздают1 Качают0 Сидер замечен11-07-2019 2:19:11 (4 минуты назад) Добавлен11-08-2017 12:24:59 (23 месяца назад) Размер2.18 GB (2343724105 Bytes)Оригинальная аудиодорожка: нет
Контейнер: MKV

Производство: Alvy Productions, BNP Paribas Fortis Film Fund, In Production
HDRip-AVC
BDRip 1080p
Тип релиза:Мы "В КОНТАКТЕ"

Аудио: 48 kHz, Dolby AC3 5.1, 448 kbps Русский
Жанр: комедия
Страна: Франция, Германия, Бельгия
Cубтитры: нет

Исходник:Перевод: Профессиональный (многоголосый закадровый)
Раздача от:
MediaInfo
Общее
Полное имя : 2.dnja.v.N'ju-Jorke.2012.DVDRip-AVC_[Youtracker]_by_AVP Studio.mkv
Формат : Matroska
Версия формата : Version 4 / Version 2
Размер файла : 2,18 Гбайт
Продолжительность : 1 ч. 35 м.
Общий поток : 3264 Кбит/сек
Дата кодирования : UTC 2013-05-28 05:42:48
Программа кодирования : mkvmerge v6.2.0 ('Promised Land') built on Apr 28 2013 12:22:01
Библиотека кодирования : libebml v1.3.0 + libmatroska v1.4.0

Видео
Идентификатор : 1
Формат : AVC
Формат/Информация : Advanced Video Codec
Профиль формата : High@L4.1
Параметр CABAC формата : Да
Параметр ReFrames формата : 11 кадров
Идентификатор кодека : V_MPEG4/ISO/AVC
Продолжительность : 1 ч. 35 м.
Битрейт : 2372 Кбит/сек
Ширина : 1024 пикселя
Высота : 556 пикселей
Соотношение сторон : 16:9
Частота кадров : 24,000 кадра/сек
Цветовое пространство : YUV
Субдискретизация насыщенности : 4:2:0
Битовая глубина : 8 бит
Тип развёртки : Прогрессивная
Бит/(Пиксели*Кадры) : 0.174
Размер потока : 1,54 Гбайт (71%)
Заголовок : Источник BDRip 1080p
Библиотека кодирования : x264 core 130 r2273 b3065e6
Настройки программы : cabac=1 / ref=11 / deblock=1:-3:-2 / analyse=0x3:0x113 / me=umh / subme=9 / psy=1 / psy_rd=1.00:0.10 / mixed_ref=1 / me_range=32 / chroma_me=1 / trellis=1 / 8x8dct=1 / cqm=0 / deadzone=21,11 / fast_pskip=0 / chroma_qp_offset=-3 / threads=3 / lookahead_threads=1 / sliced_threads=0 / nr=0 / decimate=1 / interlaced=0 / bluray_compat=0 / constrained_intra=0 / bframes=10 / b_pyramid=2 / b_adapt=1 / b_bias=0 / direct=3 / weightb=1 / open_gop=0 / weightp=2 / keyint=240 / keyint_min=23 / scenecut=40 / intra_refresh=0 / rc_lookahead=60 / rc=2pass / mbtree=1 / bitrate=2372 / ratetol=1.0 / qcomp=0.60 / qpmin=0 / qpmax=69 / qpstep=4 / cplxblur=20.0 / qblur=0.5 / ip_ratio=1.40 / aq=1:1.00
Язык : French
Default : Да
Forced : Нет

Аудио #1
Идентификатор : 2
Формат : AC-3
Формат/Информация : Audio Coding 3
Расширение режима : CM (complete main)
Идентификатор кодека : A_AC3
Продолжительность : 1 ч. 35 м.
Вид битрейта : Постоянный
Битрейт : 448 Кбит/сек
Каналы : 6 каналов
Расположение каналов : Front: L C R, Side: L R, LFE
Частота : 48,0 КГц
Битовая глубина : 16 бит
Метод сжатия : С потерями
Размер потока : 307 Мбайт (14%)
Заголовок : Источник DVD
Язык : Russian
Default : Да
Forced : Нет

Аудио #2
Идентификатор : 3
Формат : AC-3
Формат/Информация : Audio Coding 3
Расширение режима : CM (complete main)
Идентификатор кодека : A_AC3
Продолжительность : 1 ч. 35 м.
Вид битрейта : Постоянный
Битрейт : 448 Кбит/сек
Каналы : 6 каналов
Расположение каналов : Front: L C R, Side: L R, LFE
Частота : 48,0 КГц
Битовая глубина : 16 бит
Метод сжатия : С потерями
Размер потока : 307 Мбайт (14%)
Заголовок : Источник BDRip 1080p
Язык : English
Default : Нет
Forced : Нет

Скриншоты

ЗалилВидео: 1024x556 (16:9), 25 fps, H264 ~ 2372 kbps avg, 0.174 bit/pixel
Режиссер: Жюли Дельпи / Julie Delpy

Продолжительность: 01:31:40

Год выпуска: 2012

Если у вас возникли проблемы с закачкой 2 дня в Нью-Йорке / 2 Days in New York (2012) HDRip-AVC от New-Team, перейдите по ссылке - там вы найдете решение своей проблемы.

Категория: Зарубежные фильмы

 

Скачать 2 дня в Нью-Йорке / 2 Days in New York (2012) HDRip-AVC от New-Team бесплатно без регистрации

 

Информация
Посетители, находящиеся в группе Гости, не могут оставлять комментарии к данной публикации.
 
 
Скачать 2 дня в Нью-Йорке / 2 Days in New York (2012) HDRip-AVC от New-Team бесплатно без регистрацииCopyright © 2019 .