Скачать Замороженный / Hibernatus (1969) WEB-DLRip от New-Team бесплатно без регистрации




Перевод: Профессиональный (дублированный) Мосфильм
Тип релиза:В ролях:
Луи де Фюнес, Микаэль Лонсдаль, Клоди Жансак, Бернар Алан, Анник Алан, Оливье Де Фюнес, Эльетт Демэ, Мартина Келли, Жак Легра, Паскаль Маззотти, Клод Пьеплю, Поль Пребуа, Ив Венсан, Эвелин Дассас, Монита Дерьё, Робер Ле Беаль, Гарри-Макс, Макс Монтавон, Карло Нелл, Виржини Виньон, Пол Бисцилиа...

Жанр: фантастика, фэнтези, комедия
AVPStudio ОценкаНикто ещё не поставил оценку КатегорияЗарубежные фильмы Раздают1 Качают0 Сидер замечен09-07-2019 21:19:13 (1 день назад) Добавлен11-06-2013 0:47:48 (74 месяца назад) Размер744.79 MB (780965888 Bytes)Видео: 720x304 (2,35:1), 25 fps, XviD ~ 1070 kbps avg, 0.204 bit/pixel
Страна: Франция, Италия
Аудио: 48 kHz, Dolby AC3 2.0, 192 kbps
MediaInfo
Общее
Полное имя : Zamorozhennyj.1969.WEB-DLRip_[Youtracker]_by_AVP Studio.avi
Формат : AVI
Формат/Информация : Audio Video Interleave
Размер файла : 745 Мбайт
Продолжительность : 1 ч. 21 м.
Общий поток : 1272 Кбит/сек
Программа кодирования : VirtualDubModRus 1.5.10.2 (build 2542/release)
Библиотека кодирования : VirtualDubMod build 2542/release

Видео
Идентификатор : 0
Формат : MPEG-4 Visual
Профиль формата : Advanced Simple@L5
Параметр BVOP формата : 1
Параметр QPel формата : Нет
Параметр GMC формата : Без точки перехода
Параметр матрицы формата : Выборочная
Идентификатор кодека : XVID
Идентификатор кодека/Подсказка : XviD
Продолжительность : 1 ч. 21 м.
Битрейт : 1070 Кбит/сек
Ширина : 720 пикселей
Высота : 304 пикселя
Соотношение сторон : 2,35:1
Частота кадров : 24,000 кадра/сек
Цветовое пространство : YUV
Субдискретизация насыщенности : 4:2:0
Битовая глубина : 8 бит
Тип развёртки : Прогрессивная
Метод сжатия : С потерями
Бит/(Пиксели*Кадры) : 0.204
Размер потока : 627 Мбайт (84%)
Библиотека кодирования : XviD 65

Аудио
Идентификатор : 1
Формат : AC-3
Формат/Информация : Audio Coding 3
Профиль формата : Dolby Digital
Расширение режима : CM (complete main)
Идентификатор кодека : 2000
Продолжительность : 1 ч. 21 м.
Вид битрейта : Постоянный
Битрейт : 192 Кбит/сек
Каналы : 2 канала
Расположение каналов : Front: L R
Частота : 48,0 КГц
Битовая глубина : 16 бит
Метод сжатия : С потерями
Размер потока : 112 Мбайт (15%)
Выравнивание : Разделение по промежуткам
Продолжительность промежутка : 42 мс. (1,00 видеокадр)
Время предзагрузки промежутка : 500 мс

Скриншоты

ЗалилОписание:
Юбер де Тартас, богатый промышленник, живет счастливо со своей женой Эдме и сыном. Но внезапно странное событие потрясает их жизнь: на полюсе найден замороженный дедушка его жены, пролежавший в ледяной глыбе 65 лет. Его выводят из состояния зимней спячки, а чтобы не травмировать дедушкину психику, пытаются инсценировать вокруг него жизнь начала XX века. Но в их планы вмешиваются непредвиденные обстоятельства…




Производство: Gaumont International, Rizzoli Film S.p.a.
Продолжительность: 01:21:52

Cубтитры: нет

Оригинальная аудиодорожка: нет
Роли дублировали: Александр Белявский, Юрий Боголюбов, Нина Зорская, Евгений Жариков, Вера Бурлакова...

«Если дедушку оттаять - хорошего не жди...»


Год выпуска: 1969
Контейнер: AVI

Режиссер: Эдуар Молинаро / Edouard Molinaro

WEB-DLRip
Исходник:WEB-DL 720p

Если у вас возникли проблемы с закачкой Замороженный / Hibernatus (1969) WEB-DLRip от New-Team, перейдите по ссылке - там вы найдете решение своей проблемы.

Категория: Зарубежные фильмы

 

Скачать Замороженный / Hibernatus (1969) WEB-DLRip от New-Team бесплатно без регистрации

 

Информация
Посетители, находящиеся в группе Гости, не могут оставлять комментарии к данной публикации.
 
 
Скачать Замороженный / Hibernatus (1969) WEB-DLRip от New-Team бесплатно без регистрацииCopyright © 2019 .