Скачать Жил-был пёс (1982) WEBRip от ExKinoRay бесплатно без регистрации






Информация о фильме
Writing library : XviD 73

Audio
Format version : Version 1
Color space : YUV
Complete name : D:Изготовление рипаJyil byil pios.WEBRip by ExKinoRay.avi
Duration : 10 min 0 s
Страна: СССР
ID : 0
Duration : 10 min 0 s
Bit rate mode : Constant
Alignment : Split accross interleaves
Width : 704 pixels
Релиз от: Оценка10 из 10 (2 голосов, самая низкая оценка - 10, самая высокая - 10) КатегорияМультипликация Раздают69 Качают2 Сидер замечен10-07-2019 20:19:13 (42 минуты назад) Добавлен01-10-2017 15:59:22 (22 месяца назад) Размер142.73 MB (149659648 Bytes)Название: Жил-был пёс
Студия: Союзмультфильм
Качество: WEBRip
Format profile : Advanced Simple@L5
Overall bit rate : 1 994 kb/s
Format settings : BVOP1 / Custom Matrix
Продолжительность: 00:10:00
ID : 1
Writing library : VirtualDubMod build 2550/release

Video
Compression mode : Lossy
Interleave, duration : 40 ms (1.00 video frame)
Семпл

MIGeneral
Codec ID/Hint : MP3
Sampling rate : 44.1 kHz
Жанр: Мультфильм
Видео: 704x528, 1872 kbps avg, 25 fps, 0.20 bit/pixel
Субтитры: Отсутствуют

Bit depth : 8 bits
В ролях: Георгий Бурков, Армен Джигарханян, Эдуард Назаров

Duration : 10 min 0 s
Звук: 44.100 kHz, MP3, 2 ch, ~112.00 kbps avg
Compression mode : Lossy
Scan type : Progressive
Codec ID/Hint : XviD
Format settings, GMC : No warppoints
Codec ID : 55
Format : MPEG Audio
Format settings, BVOP : 1
Frame rate : 25.000 FPS
Height : 528 pixels
Stream size : 8.02 MiB (6%)
Display aspect ratio : 4:3
Codec ID : XVID
Format profile : Layer 3
Format settings, Matrix : Custom
Format : MPEG-4 Visual
Bits/(Pixel*Frame) : 0.201
Chroma subsampling : 4:2:0
Bit rate : 112 kb/s
О фильме:
Жил-был пёс. Верно служил, но выгнали его по старости. И решил он повеситься, да повстречал в лесу такого же старого волка…



Stream size : 134 MiB (94%)
Channel(s) : 2 channels
Interleave, preload duratio : 500 ms
Format : AVI
Кодек: XviD
File size : 143 MiB
Format/Info : Audio Video Interleave
Bit rate : 1 872 kb/s
Writing application : VirtualDubMod 1.5.10.3 | www.virtualdub-fr.org || (build 2550/release)
Writing library : LAME3.99r
Encoding settings : -m s -V 4 -q 2 -lowpass 15.6 -b 112Скриншоты

Год выхода: 1982
Format settings, QPel : No
Язык: Русский

Режиссер: Эдуард Назаров

Если у вас возникли проблемы с закачкой Жил-был пёс (1982) WEBRip от ExKinoRay, перейдите по ссылке - там вы найдете решение своей проблемы.

Категория: Мультипликация

 

Скачать Жил-был пёс (1982) WEBRip от ExKinoRay бесплатно без регистрации

 

Информация
Посетители, находящиеся в группе Гости, не могут оставлять комментарии к данной публикации.
 
 
Скачать Жил-был пёс (1982) WEBRip от ExKinoRay бесплатно без регистрацииCopyright © 2019 .