Скачать Парни со стволами / War Dogs (2016) BDRip от GeneralFilm | Лицензия бесплатно без регистрации






Информация о фильме
Видео: XviD, 720x304 (2.35:1), 23.976 fps, 1371 Kbps (0.261 bit/pixel)
Формат: AVI
Режиссер: Тодд Филлипс
Оригинальное название: War Dogs
Название: Парни со стволами
vsobbol Оценка9.8 из 10 (4 голосов, самая низкая оценка - 9, самая высокая - 10) КатегорияЗарубежные фильмы Раздают0 Качают0 Сидер замечен06-07-2019 20:19:13 (4 дня назад) Добавлен24-11-2016 2:35:36 (32 месяца назад) Размер1.46 GB (1566617600 Bytes)Лицензия

Релиз от:
Звук: 48.0 kHz, AC3 Dolby Digital, 5/1 (L C R, Side: L R, LFE) ch, 448 kbps
Исходник: WAR_DOGS_REMUX_HDCLUB ЗалилСтудия: Warner Bros., Green Hat Films, Joint Effort, Mark Gordon Company
Страна: США
О фильме:
Реальная история о приятелях-планокурах из Майами, умудрившихся выбить в Пентагоне контракт на 300 миллионов долларов на поставку оружия.



Субтитры: Русские (на надписи и прочее) - форсированные

МедиаИнфоGeneral
Complete name : Parni.so.stvolami.2016.XviD.Lic.BDRip.GeneralFilm.avi
Format : AVI
Format/Info : Audio Video Interleave
File size : 1.46 GiB
Duration : 1h 54mn
Overall bit rate : 1 829 Kbps
Writing application : VirtualDubMod 1.5.10.3 | www.virtualdub-fr.org || (build 2550/release)
Writing library : VirtualDubMod build 2550/release

Video
ID : 0
Format : MPEG-4 Visual
Format profile : Advanced Simple@L5
Format settings, BVOP : 1
Format settings, QPel : No
Format settings, GMC : No warppoints
Format settings, Matrix : Custom
Codec ID : XVID
Codec ID/Hint : XviD
Duration : 1h 54mn
Bit rate : 1 371 Kbps
Width : 720 pixels
Height : 304 pixels
Display aspect ratio : 2.35:1
Frame rate : 23.976 (23976/1000) fps
Color space : YUV
Chroma subsampling : 4:2:0
Bit depth : 8 bits
Scan type : Progressive
Compression mode : Lossy
Bits/(Pixel*Frame) : 0.261
Stream size : 1.09 GiB (75%)
Writing library : XviD 73

Audio
ID : 1
Format : AC-3
Format/Info : Audio Coding 3
Mode extension : CM (complete main)
Format settings, Endianness : Big
Codec ID : 2000
Duration : 1h 54mn
Bit rate mode : Constant
Bit rate : 448 Kbps
Channel(s) : 6 channels
Channel positions : Front: L C R, Side: L R, LFE
Sampling rate : 48.0 KHz
Frame rate : 31.250 fps (1536 spf)
Compression mode : Lossy
Stream size : 366 MiB (24%)
Alignment : Split accross interleaves
Interleave, duration : 42 ms (1.00 video frame)
Interleave, preload duratio : 500 msСемплhttp://sendfile.su/1284852Скриншоты



Жанр: Драма, комедия, военный
Год выпуска: 2016
В ролях: Майлз Теллер, Джона Хилл, Стив Лэнц, Грегг Уэйнер, Эдди Джемисон, Джулиан Сержи, Дэниэл Берсон, Эдсон Жан, Брэдли Купер

Продолжительность: 01:54:12
Качество: BDRip
Перевод: Профессиональный (полное дублирование) |

Если у вас возникли проблемы с закачкой Парни со стволами / War Dogs (2016) BDRip от GeneralFilm | Лицензия, перейдите по ссылке - там вы найдете решение своей проблемы.

Категория: Зарубежные фильмы

 

Скачать Парни со стволами / War Dogs (2016) BDRip от GeneralFilm | Лицензия бесплатно без регистрации

 

Информация
Посетители, находящиеся в группе Гости, не могут оставлять комментарии к данной публикации.
 
 
Скачать Парни со стволами / War Dogs (2016) BDRip от GeneralFilm | Лицензия бесплатно без регистрацииCopyright © 2019 .