Скачать Андриеш (1954) DVDRip от New-Team бесплатно без регистрации





AVPStudio ОценкаНикто ещё не поставил оценку КатегорияНаши фильмы Раздают1 Качают0 Сидер замечен10-07-2019 12:19:12 (6 часов назад) Добавлен08-06-2016 11:55:43 (38 месяцев назад) Размер744.13 MB (780277760 Bytes)Не требуется
Полный список актёров

Оригинальная аудиодорожка: русский

Формат видео: AVI

DVD5 R5
Перевод:Производство: Киевская к/ст

Описание:
По одноименной стихотворной сказке Емилиана Букова.
Картине предшествовала дипломная работа («Молдавская сказка») этого же сюжета о герое молдавских сказок — пастушонке Андриеше, мечтавшем стать витязем, о волшебной свирели, которую однажды ему подарил сказочный богатырь Вайнован, и борьбе со злым волшебником Черным Вихрем, ненавидящем все живое. Тогда, для короткометражного фильма, Параджанов соорудил куклу-мальчика Андриеша и снимал ее на натуре. Это были первые опыты сочетания бутафории с живой природой. Спустя четыре года, приступая к постановке первой игровой полнометражной картины, Параджанов по совету А.Довженко повторяет сюжет про Андриеша с актерами. Это был детский фильм, сказка, «которая, — как пишет сам режиссер, — выразила отсутствие опыта, мастерства и хорошего вкуса.».



Видео: 688x512 (4:3), 25 fps, XviD ~ 1578 kbps avg, 0.179 bit/pixel
Жанр: семейный, фэнтези
Качество видео:Режиссер: Яков Базелян, Сергей Параджанов

Аудио: 48 kHz, Dolby Digital AC3 2.0, 192 kbps

Раздача от:
MediaInfo
Общее
Полное имя : Andriesh.1954.DVDRip_[New-team]_by_AVP_Studio.avi
Формат : AVI
Формат/Информация : Audio Video Interleave
Размер файла : 744 Мбайт
Продолжительность : 58 м.
Общий поток : 1780 Кбит/сек
Программа кодирования : VirtualDubMod 1.5.10.3 | www.virtualdub-fr.org || (build 2550/release)
Библиотека кодирования : VirtualDubMod build 2550/release

Видео
Идентификатор : 0
Формат : MPEG-4 Visual
Профиль формата : Advanced Simple@L5
Параметр BVOP формата : 1
Параметр QPel формата : Нет
Параметр GMC формата : Без точки перехода
Параметр матрицы формата : Выборочная
Идентификатор кодека : XVID
Идентификатор кодека/Подсказка : XviD
Продолжительность : 58 м.
Битрейт : 1578 Кбит/сек
Ширина : 688 пикселей
Высота : 512 пикселей
Соотношение сторон : 4:3
Частота кадров : 25,000 кадров/сек
Цветовое пространство : YUV
Субдискретизация насыщенности : 4:2:0
Битовая глубина : 8 бит
Тип развёртки : Прогрессивная
Метод сжатия : С потерями
Бит/(Пиксели*Кадры) : 0.179
Размер потока : 660 Мбайт (89%)
Библиотека кодирования : XviD 1.2.1 (UTC 2008-12-04)

Аудио
Идентификатор : 1
Формат : AC-3
Формат/Информация : Audio Coding 3
Расширение режима : CM (complete main)
Параметр Endianness формата : Big
Идентификатор кодека : 2000
Продолжительность : 58 м.
Вид битрейта : Постоянный
Битрейт : 192 Кбит/сек
Каналы : 2 канала
Расположение каналов : Front: L R
Частота : 48,0 КГц
Частота кадров : 31,250 кадров/сек (1536 spf)
Метод сжатия : С потерями
Размер потока : 80,3 Мбайт (11%)
Выравнивание : Разделение по промежуткам
Продолжительность промежутка : 40 мс. (1,00 видеокадр)
Время предзагрузки промежутка : 500 мс

Скриншоты

ЗалилИсточник:В ролях:
Костя Руссу, Людмила Соколова, Нодар Шашик-оглы, Кирилл Штирбу, Евгений Уреке, Домника Дариенко, Роберт Клявин (Визиренко), Трифан Грузин, Гиули Чохонелидзе...
Год выпуска: 1954
Страна: СССР
Продолжительность: 00:58:28

DVDRip
Cубтитры: нет

Если у вас возникли проблемы с закачкой Андриеш (1954) DVDRip от New-Team, перейдите по ссылке - там вы найдете решение своей проблемы.

Категория: Наши фильмы

 

Скачать Андриеш (1954) DVDRip от New-Team бесплатно без регистрации

 

Информация
Посетители, находящиеся в группе Гости, не могут оставлять комментарии к данной публикации.
 
 
Скачать Андриеш (1954) DVDRip от New-Team бесплатно без регистрацииCopyright © 2019 .