Скачать Чёрный рыцарь / Black Knight (2001) BDRip от ivandubskoj | P, A бесплатно без регистрации






Информация о фильме
Аудио #3: Русский, Dolby AC3, 48000 Гц, 384 Кбит/с, 6 каналов (5.1), - MVO, R5
Аудио #1: Русский, Dolby AC3, 48000 Гц, 384 Кбит/с, 6 каналов (5.1), - MVO
Релиз от: Название: Чёрный рыцарь
В ролях: Мартин Лоуренс, Марша Томасон, Том Уилкинсон, Винсент Риган, Кевин Конуэй, Эрик Дженсен, Хелен Кэри, Майкл Бургесс, Изабелл Монк, Марк Джеффри Миллер, Зэк Ханнер, Ричард Фуллертон, Грег Купер

Студия: Twentieth Century Fox Film Corporation
Оригинальное название: Black Knight
Режиссёр: Джил Джангер
Год выхода: 2001
Кодек: XviD
Видео: XviD, 720x304 (2.35:1), 1785 Кбит/с, 23,976 кадр/с
ivandubskoj Оценка10 из 10 (3 голосов, самая низкая оценка - 10, самая высокая - 10) КатегорияЗарубежные фильмы Раздают1 Качают0 Сидер замечен09-07-2019 21:19:13 (14 часа назад) Добавлен14-07-2014 18:35:53 (61 месяц назад) Размер2.10 GB (2251079680 Bytes)Перевод: Профессиональный многоголосый, Профессиональный многоголосый (Первый канал), Профессиональный многоголосый (R5), Авторский одноголосый (С. Визгунов)

Жанр: Комедия, фэнтези, приключения
Продолжительность: 01:35:37
Страна: США
Субтитры: Нет



MediaInfo
General
Complete name : Black.Knight.2001.BDRip.avi
Format : AVI
Format/Info : Audio Video Interleave
File size : 2.10 GiB
Duration : 1h 35mn
Overall bit rate : 3 139 Kbps
Movie name : Черный рыцарь / Black Knight (2001) BDRip
Writing application : VirtualDubMod 1.5.10.3 | www.virtualdub-fr.org || (build 2550/release)
Writing library : VirtualDubMod build 2550/release

Video
ID : 0
Format : MPEG-4 Visual
Format profile : Advanced Simple@L5
Format settings, BVOP : 1
Format settings, QPel : No
Format settings, GMC : No warppoints
Format settings, Matrix : Custom
Codec ID : XVID
Codec ID/Hint : XviD
Duration : 1h 35mn
Bit rate : 1 785 Kbps
Width : 720 pixels
Height : 304 pixels
Display aspect ratio : 2.35:1
Frame rate : 23.976 fps
Color space : YUV
Chroma subsampling : 4:2:0
Bit depth : 8 bits
Scan type : Progressive
Compression mode : Lossy
Bits/(Pixel*Frame) : 0.339
Stream size : 1.19 GiB (57%)
Writing library : XviD 65

Audio #1
ID : 1
Format : AC-3
Format/Info : Audio Coding 3
Mode extension : CM (complete main)
Codec ID : 2000
Duration : 1h 35mn
Bit rate mode : Constant
Bit rate : 384 Kbps
Channel(s) : 6 channels
Channel positions : Front: L C R, Side: L R, LFE
Sampling rate : 48.0 KHz
Bit depth : 16 bits
Compression mode : Lossy
Stream size : 263 MiB (12%)
Alignment : Split accross interleaves
Interleave, duration : 64 ms (1.53 video frames)
Interleave, preload duration : 500 ms
Title : Russian, MVO

Audio #2
ID : 2
Format : AC-3
Format/Info : Audio Coding 3
Mode extension : CM (complete main)
Codec ID : 2000
Duration : 1h 35mn
Bit rate mode : Constant
Bit rate : 192 Kbps
Channel(s) : 2 channels
Channel positions : Front: L R
Sampling rate : 48.0 KHz
Bit depth : 16 bits
Compression mode : Lossy
Stream size : 131 MiB (6%)
Alignment : Split accross interleaves
Interleave, duration : 64 ms (1.53 video frames)
Interleave, preload duration : 500 ms
Title : Russian (MVO, Первый канал)

Audio #3
ID : 3
Format : AC-3
Format/Info : Audio Coding 3
Mode extension : CM (complete main)
Codec ID : 2000
Duration : 1h 35mn
Bit rate mode : Constant
Bit rate : 384 Kbps
Channel(s) : 6 channels
Channel positions : Front: L C R, Side: L R, LFE
Sampling rate : 48.0 KHz
Bit depth : 16 bits
Compression mode : Lossy
Stream size : 263 MiB (12%)
Alignment : Split accross interleaves
Interleave, duration : 64 ms (1.53 video frames)
Interleave, preload duration : 500 ms
Title : Russian (MVO, R5)

Audio #4
ID : 4
Format : AC-3
Format/Info : Audio Coding 3
Mode extension : CM (complete main)
Codec ID : 2000
Duration : 1h 35mn
Bit rate mode : Constant
Bit rate : 384 Kbps
Channel(s) : 6 channels
Channel positions : Front: L C R, Side: L R, LFE
Sampling rate : 48.0 KHz
Bit depth : 16 bits
Compression mode : Lossy
Stream size : 263 MiB (12%)
Alignment : Split accross interleaves
Interleave, duration : 2669 ms (63.98 video frames)
Interleave, preload duration : 500 ms
Title : Russian (AVO, С. Визгунов)
Скриншоты
ivandubskoj ЗалилКачество: BDRip [Исходник: Blu-Ray Remux (1080p)]
О фильме:
Был обычный летний день. Джамал, как обычно, чистил ров в городском парке развлечений «Средневековый мир». Но судьба уже готовила ему самое веселое и безумное приключение в его жизни... Случайно перевернувшись через перила моста, Джамал падает в воду и выныривает в Средневековой Англии! Принятый за посла из Нормандии из-за странной одежды и манеры говорить, он знакомится с очаровательной заговорщицей, которая хочет свергнуть короля-тирана. Затянутый в заговор, Джамал между делом планирует открытие сети ресторанов быстрого питания, соблазняет дочку короля и запугивает до смерти всех горожан своими «колдовскими» способностями...



Аудио #4: Русский, Dolby AC3, 48000 Гц, 384 Кбит/с, 6 каналов (5.1), - AVO, С. Визгунов
Аудио #2: Русский, Dolby AC3, 48000 Гц, 192 Кбит/с, 2 канала (Стерео), - MVO, Первый канал

Если у вас возникли проблемы с закачкой Чёрный рыцарь / Black Knight (2001) BDRip от ivandubskoj | P, A, перейдите по ссылке - там вы найдете решение своей проблемы.

Категория: Зарубежные фильмы

 

Скачать Чёрный рыцарь / Black Knight (2001) BDRip от ivandubskoj | P, A бесплатно без регистрации

 

Информация
Посетители, находящиеся в группе Гости, не могут оставлять комментарии к данной публикации.
 
 
Скачать Чёрный рыцарь / Black Knight (2001) BDRip от ivandubskoj | P, A бесплатно без регистрацииCopyright © 2019 .